Категории
Добро пожаловать на музыкальный торрент трекер без регистрации - Sound-Park  ι  Стать пользователем  ι  Войти  ι  Напомнить пароль?

Нашему проекту исполняется 10 лет! В связи с этим мы готовим крутейшую современную обнову. Вы можете нам помочь 🤘


Patricia Kelly - One More Year (Lossless, Hi Res 2020)

Pop
 
Дата: 16 марта 2020
Добавил: StasOn11
Просмотров: 983
  • ИСПОЛНИТЕЛЬ: Patricia Kelly
  • АЛЬБОМ / НАЗВАНИЕ: One More Year
  • ГОД / ДАТА ВЫХОДА: March 6, 2020
  • СТРАНА: United States
  • ТОЧНЫЙ ЖАНР(Ы): Pop, Singer / Songwriter
  • ЛЕЙБЛ: Electrola
  • ПРОДОЛЖИТЕЛЬНОСТЬ: 00:59:10
  • ФОРМАТ: FLAC, (tracks) 24 bits, 44,1 KHz
  • КАЧЕСТВО: Lossless

  • РЕЙТИНГ: 9.5 / 6    
  • ГОЛОСОВАТЬ:

  • СКАЧАТЬ: ПРЯМАЯ ССЫЛКА НА ТОРРЕНТ
  • СИДЫ:

Описание альбома



◈ 01 - One More Year (00:03:37)
◈ 02 - Carry On (00:03:02)
◈ 03 - Love Found Me (00:03:56)
◈ 04 - Medicine (00:03:14)
◈ 05 - Thank You (00:03:11)
◈ 06 - Don't Lose Hope (00:03:39)
◈ 07 - Your Grace (00:03:34)
◈ 08 - We're Gonna Be Okay (00:04:02)
◈ 09 - Goodbye (00:03:17)
◈ 10 - Giant (00:04:29)
◈ 11 - Call Me Crazy (00:04:36)
◈ 12 - Mother (00:04:16)
◈ 13 - Luck On The Way (00:03:06)
◈ 14 - Forgiveness (00:04:07)
◈ 15 - I Need You (00:03:12)
◈ 16 - Too Late (00:03:44)

Qobuz


foobar2000 1.4.2 / Замер динамического диапазона (DR) 1.1.1
Дата отчёта: 2020-03-12 09:51:16

--------------------------------------------------------------------------------
Анализ: Kelly Patricia / One More Year
--------------------------------------------------------------------------------

DR Пики RMS Продолжительность трека
--------------------------------------------------------------------------------
DR5 -1.20 дБ -8.80 дБ 3:38 01-One More Year
DR7 -1.20 дБ -9.82 дБ 3:03 02-Carry On
DR6 -1.20 дБ -12.52 дБ 3:56 03-Love Found Me
DR6 -1.20 дБ -8.98 дБ 3:14 04-Medicine
DR6 -1.20 дБ -9.68 дБ 3:12 05-Thank You
DR5 -1.10 дБ -8.26 дБ 3:40 06-Don't Lose Hope
DR5 -1.20 дБ -8.77 дБ 3:34 07-Your Grace
DR5 -1.20 дБ -9.65 дБ 4:03 08-We're Gonna Be Okay
DR5 -1.20 дБ -7.54 дБ 3:17 09-Goodbye
DR6 -1.20 дБ -9.76 дБ 4:29 10-Giant
DR7 -1.20 дБ -9.61 дБ 4:37 11-Call Me Crazy
DR6 -1.20 дБ -11.21 дБ 4:17 12-Mother
DR6 -1.20 дБ -8.77 дБ 3:07 13-Luck On The Way
DR6 -1.20 дБ -10.44 дБ 4:08 14-Forgiveness
DR5 -1.20 дБ -7.75 дБ 3:12 15-I Need You
DR10 -1.20 дБ -14.34 дБ 3:44 16-Too Late
--------------------------------------------------------------------------------

Количество треков: 16
Реальные значения DR: DR6

Частота: 44100 Гц
Каналов: 2
Разрядность: 24
Битрейт: 1470 кбит/с
Кодек: FLAC
================================================================================



Комментарии (2)


17 марта 2020
poshoclin   
0 
PR:XCityXXX GBXXX GBПостовХС
В
Л
Х

Gracias!!


16 марта 2020
Bagdee   
+1 
PR:XCityXXX GBXXX GBПостовХС
В
Л
Х

Grand merci



 

Похожие альбомы

Please enable Javascript!
Пожалуйста включите Javascript, иначе данный и другие сайты могут работать не корректно! Узнать как включить Javascript можно на Google Support