Категории
Добро пожаловать на музыкальный торрент трекер без регистрации - Sound-Park  ι  Стать пользователем  ι  Войти  ι  Напомнить пароль?

Нашему проекту исполняется 10 лет! В связи с этим мы готовим крутейшую современную обнову. Вы можете нам помочь 🤘


Avenged Sevenfold - Diamonds In The Rough (Remastered) (Lossless, Hi Res 2020)

Heavy Metal
 
Дата: 9 февраля 2020
Добавил: StasOn11
Просмотров: 999
  • ИСПОЛНИТЕЛЬ: Avenged Sevenfold
  • АЛЬБОМ / НАЗВАНИЕ: Diamonds In The Rough (Remastered)
  • ГОД / ДАТА ВЫХОДА: February 7, 2020
  • СТРАНА: United States
  • ТОЧНЫЙ ЖАНР(Ы): Alternative Heavy Metal
  • ЛЕЙБЛ: Warner Records
  • ПРОДОЛЖИТЕЛЬНОСТЬ: 01:16:41
  • ФОРМАТ: FLAC, (tracks) 24 bits, 88,2 KHz
  • КАЧЕСТВО: Lossless
  • Оф сайт: avengedsevenfold.com

  • РЕЙТИНГ: 10 / 7    
  • ГОЛОСОВАТЬ:

  • СКАЧАТЬ: ПРЯМАЯ ССЫЛКА НА ТОРРЕНТ
  • СИДЫ:

Описание альбома



01. Demons (6:12)
02. Girl I Know (4:24)
03. Crossroads (4:30)
04. Flash of the Blade (4:02)
05. Until the End (4:46)
06. Tension (4:50)
07. Walk (5:22)
08. The Fight (4:07)
09. Dancing Dead (5:52)
10. Almost Easy (Chris Lord-Alge Mix) (3:54)
11. Afterlife (Alternate Version) (5:53)
12. St. James (5:02)
13. Set Me Free (6:21)
14. 4:00 AM (5:01)
15. Lost It All (3:52)
16. Paranoid (2:43)

Qobuz



foobar2000 1.5.1 / Замер динамического диапазона (DR) 1.1.1
Дата отчёта: 2020-02-07 05:35:27

--------------------------------------------------------------------------------
Анализ: Avenged Sevenfold / Diamonds in the Rough
--------------------------------------------------------------------------------

DR Пики RMS Продолжительность трека
--------------------------------------------------------------------------------
DR10 -0.08 дБ -10.73 дБ 6:12 01-Demons
DR10 -0.10 дБ -10.99 дБ 4:24 02-Girl I Know
DR10 -0.10 дБ -10.67 дБ 4:30 03-Crossroads
DR6 -4.59 дБ -11.35 дБ 4:02 04-Flash of the Blade
DR10 -0.10 дБ -10.94 дБ 4:46 05-Until the End
DR9 -0.10 дБ -10.57 дБ 4:50 06-Tension
DR10 -0.10 дБ -11.20 дБ 5:22 07-Walk
DR10 -0.10 дБ -10.56 дБ 4:07 08-The Fight
DR10 -0.10 дБ -12.03 дБ 5:52 09-Dancing Dead
DR9 -0.40 дБ -10.24 дБ 3:54 10-Almost Easy (Chris Lord-Alge Mix)
DR10 -0.10 дБ -10.97 дБ 5:53 11-Afterlife (Alternate Version)
DR10 0.00 дБ -11.44 дБ 5:02 12-St. James
DR10 0.00 дБ -12.42 дБ 6:21 13-Set Me Free
DR10 -0.10 дБ -11.64 дБ 5:01 14-4:00 AM
DR10 -0.10 дБ -10.67 дБ 3:52 15-Lost It All
DR6 -3.40 дБ -10.32 дБ 2:43 16-Paranoid
--------------------------------------------------------------------------------

Количество треков: 16
Реальные значения DR: DR9

Частота: 88200 Гц
Каналов: 2
Разрядность: 24
Битрейт: 2797 кбит/с
Кодек: FLAC
================================================================================



Комментарии (2)


9 февраля 2020
Bagdee   
0 
PR:XCityXXX GBXXX GBПостовХС
В
Л
Х

Grand merci


9 февраля 2020
konigsberg   
+1 
PR:XCityXXX GBXXX GBПостовХС
В
Л
Х



 

Похожие альбомы

+ Показать ещё
Please enable Javascript!
Пожалуйста включите Javascript, иначе данный и другие сайты могут работать не корректно! Узнать как включить Javascript можно на Google Support