Категории
Добро пожаловать на музыкальный торрент трекер без регистрации - Sound-Park  ι  Стать пользователем  ι  Войти  ι  Напомнить пароль?

Odetta - Blues Everywhere I Go (Lossless, Hi Res 1999/2019)

Blues
 
Дата: 3 декабря 2019
Добавил: StasOn11
Просмотров: 324
  • ИСПОЛНИТЕЛЬ: Odetta
  • АЛЬБОМ / НАЗВАНИЕ: Blues Everywhere I Go
  • ГОД / ДАТА ВЫХОДА: 1999/2019
  • СТРАНА: United States
  • ТОЧНЫЙ ЖАНР(Ы): Blues
  • ЛЕЙБЛ: M.C. Records
  • ПРОДОЛЖИТЕЛЬНОСТЬ: 01:03:40
  • ФОРМАТ: FLAC, (tracks) 24 bits, 88,2 KHz
  • КАЧЕСТВО: Lossless

  • РЕЙТИНГ: 9.6 / 5    
  • ГОЛОСОВАТЬ:

  • СКАЧАТЬ: ПРЯМАЯ ССЫЛКА НА ТОРРЕНТ
  • СИДЫ:

Описание альбома



01 - Blues Everywhere I Go 04:53
02 - Please Send Me Someone to Love 02:33
03 - Dink's Blues 04:49
04 - Unemployment Blues 04:06
05 - Tb Blues 04:06
06 - Trouble Everywhere / I've Been Living With the Blues 04:01
07 - Can't Afford to Lose My Man 02:57
08 - Homeless Blues 05:58
09 - Oh Papa 03:01
10 - Look the World Over 03:38
11 - Careless Love / St. Louis Blues 07:51
12 - Hear Me Talking to You 03:16
13 - Rich Man Blues 04:41
14 - W.P.A. Blues 04:12
15 - You Gotta Know How 03:38

Qobuz

Odetta – vocals, guitar
Jimmy Vivino - guitar
Dr. John – piano, vocals on "Please Send Me Someone to Love" and "Oh Papa"
Mike Merritt - acoustic bass
Paul Ossola – acoustic bass
Shawn Pelton – drums
Larry Eagle – drums
Richard Crooks - drums
Seth Farber – piano
Tom "Bones" Malone – tenor saxophone, trumpet on "Dink's Blues"


foobar2000 1.4.3 / Dynamic Range Meter 1.1.1
log date: 2019-11-30 16:46:33

--------------------------------------------------------------------------------
Analyzed: Odetta / Blues Everywhere I Go
--------------------------------------------------------------------------------

DR Peak RMS Duration Track
--------------------------------------------------------------------------------
DR9 0.00 dB -9.98 dB 4:53 01-Blues Everywhere I Go
DR13 -0.08 dB -16.16 dB 2:33 02-Please Send Me Someone to Love
DR10 0.00 dB -11.49 dB 4:49 03-Dink's Blues
DR9 0.00 dB -10.63 dB 4:06 04-Unemployment Blues
DR11 0.00 dB -12.52 dB 4:06 05-Tb Blues
DR10 0.00 dB -10.82 dB 4:01 06-Trouble Everywhere / I've Been Living With the Blues
DR9 0.00 dB -10.40 dB 2:57 07-Can't Afford to Lose My Man
DR9 0.00 dB -11.25 dB 5:58 08-Homeless Blues
DR11 -0.01 dB -13.69 dB 3:01 09-Oh Papa
DR8 0.00 dB -9.84 dB 3:38 10-Look the World Over
DR9 0.00 dB -11.32 dB 7:51 11-Careless Love / St. Louis Blues
DR9 0.00 dB -10.89 dB 3:16 12-Hear Me Talking to You
DR10 0.00 dB -12.35 dB 4:41 13-Rich Man Blues
DR9 0.00 dB -10.64 dB 4:12 14-W.P.A. Blues
DR10 0.00 dB -11.33 dB 3:38 15-You Gotta Know How
--------------------------------------------------------------------------------

Number of tracks: 15
Official DR value: DR10

Samplerate: 88200 Hz
Channels: 2
Bits per sample: 24
Bitrate: 2600 kbps
Codec: FLAC
================================================================================



Комментарии (2)


3 декабря 2019
tcbr18vep   
+1 
PR:XCityXXX GBXXX GBПостовХС
В
Л
Х

Благодарю


3 декабря 2019
wisim   
+1 
PR:XCityXXX GBXXX GBПостовХС
В
Л
Х

Благодарю!



 

Похожие альбомы

Please enable Javascript!
Пожалуйста включите Javascript, иначе данный и другие сайты могут работать не корректно! Узнать как включить Javascript можно на Google Support