Категории
Добро пожаловать на музыкальный торрент трекер без регистрации - Sound-Park  ι  Стать пользователем  ι  Войти  ι  Напомнить пароль?

Nicki Parrott - Papa Loves Mambo (Lossless, Hi Res 2019)

Jazz  Vocal jazz
 
Дата: 3 декабря 2019
Добавил: StasOn11
Просмотров: 387
  • ИСПОЛНИТЕЛЬ: Nicki Parrott
  • АЛЬБОМ / НАЗВАНИЕ: Papa Loves Mambo
  • ГОД / ДАТА ВЫХОДА: 2019
  • СТРАНА: Australia
  • ТОЧНЫЙ ЖАНР(Ы): Jazz, Vocal Jazz
  • ЛЕЙБЛ: Venus
  • ПРОДОЛЖИТЕЛЬНОСТЬ: 00:55:34
  • ФОРМАТ: ISO, (image) 64 (2,8 MHz/1 Bit)
  • КАЧЕСТВО: Lossless
  • Оф сайт: nickiparrott.com

  • РЕЙТИНГ: 10 / 2    
  • ГОЛОСОВАТЬ:

  • СКАЧАТЬ: ПРЯМАЯ ССЫЛКА НА ТОРРЕНТ
  • СИДЫ:

Описание альбома



01. Papa Loves Mambo (A.Hoffman, D. Manning, B. Reichner) 3:32
02. Somos Novios (A. Manzanerov) 4:31
03. Perfidia (A. Dominguez) 4:06
04. Kiss Of Fire (E. S. Discepolo - A. Villoldov) 4:04
05. Historia De Un Amor (C. E. Almaran) 3:13
06. Te Extraño (A. Manzanero) 4:05
07. Tango (E. Egemann, A.Gaertner) 4:04
08. Green Eyes (A. Utrero - N. Menendez) 4:33
09. Dos Gardenias (I. Carrillo) 3:52
10. Oblivion (A.Piazzolla) 4:25
11. Blue Tango (M. Parish - L. Anderson) 2:37
12. No Me Platiques Mas (V. Garrido) 3:14
13. Moliendo Cafe (J. M. Perroni) 3:25
14. Alfonsina Y El Mar (F. Luna - A. Ramirez) 5:19

MJ

Nicki Parrott - vocals & bass
Kenn Peplowski - clarinet & tenor sax
Vince Cherico - percussion
Justin Poindexter - acoustic & electric guitar
Sam Reider - accordion



foobar2000 1.3.13 / Замер динамического диапазона (DR) 1.1.1
Дата отчёта: 2019-12-01 22:55:40

--------------------------------------------------------------------------------
Анализ: Nicki Parrott / PAPA LOVES MAMBO
--------------------------------------------------------------------------------

DR Пики RMS Продолжительность трека
--------------------------------------------------------------------------------
DR6 -5.46 дБ -12.75 дБ 3:37 01-Papa Loves Mambo
DR6 -5.49 дБ -13.22 дБ 4:35 02-Somos Novios
DR5 -5.48 дБ -13.25 дБ 4:03 03-Perfidia
DR5 -5.50 дБ -12.69 дБ 4:09 04-Kiss Of Fire
DR6 -5.57 дБ -14.33 дБ 3:15 05-Historia De Un Amor
DR6 -5.57 дБ -14.70 дБ 4:02 06-Te Extraсo
DR5 -5.51 дБ -13.90 дБ 4:07 07-Tango
DR5 -5.49 дБ -13.00 дБ 4:37 08-Green Eyes
DR5 -5.57 дБ -12.72 дБ 3:52 09-Dos Gardenias
DR7 -5.59 дБ -16.72 дБ 4:27 10-Oblivion
DR5 -5.56 дБ -12.11 дБ 2:42 11-Blue Tango
DR4 -5.54 дБ -11.93 дБ 3:18 12-No Me Platiques Mas
DR6 -5.10 дБ -12.97 дБ 3:29 13-Moliendo Cafe
DR6 -5.48 дБ -14.34 дБ 5:20 14-Alfonsina Y El Mar
--------------------------------------------------------------------------------

Количество треков: 14
Реальные значения DR: DR6

Частота: 2822400 Гц / Частота PCM: 88200 Гц
Каналов: 2
Разрядность: 24
Битрейт: 5645 кбит/с
Кодек: DSD64
================================================================================



Комментарии (1)


3 декабря 2019
ChaKuZaa   
+1 
PR:XCityXXX GBXXX GBПостовХС
В
Л
Х

So Nice, Thank U !!!



 

Похожие альбомы

+ Показать ещё
Please enable Javascript!
Пожалуйста включите Javascript, иначе данный и другие сайты могут работать не корректно! Узнать как включить Javascript можно на Google Support