Категории
Добро пожаловать на музыкальный торрент трекер без регистрации - Sound-Park  ι  Стать пользователем  ι  Войти  ι  Напомнить пароль?

FELYSA - Senses (Lossless, Hi Res 2019)

Jazz  Vocal jazz
 
Дата: 3 декабря 2019
Добавил: StasOn11
Просмотров: 266
  • ИСПОЛНИТЕЛЬ: FELYSA
  • АЛЬБОМ / НАЗВАНИЕ: Senses
  • ГОД / ДАТА ВЫХОДА: November 8, 2019
  • СТРАНА: United States
  • ТОЧНЫЙ ЖАНР(Ы): Jazz, Vocal Jazz
  • ЛЕЙБЛ: Argus Productions
  • ПРОДОЛЖИТЕЛЬНОСТЬ: 00:36:17
  • ФОРМАТ: FLAC, (tracks) 24 bits, 48 KHz
  • КАЧЕСТВО: Lossless
  • Оф сайт: felysa.com

  • РЕЙТИНГ: 10 / 3    
  • ГОЛОСОВАТЬ:

  • СКАЧАТЬ: ПРЯМАЯ ССЫЛКА НА ТОРРЕНТ
  • СИДЫ:

Описание альбома



01. Life In A Dream (3:23)
02. Far Away (3:37)
03. New York Déjá Vu (3:14)
04. Michelle (3:15)
05. Nouveau Paris (4:59)
06. Hourglass (3:41)
07. Be My Baby (3:15)
08. Shooting Star (3:18)
09. Angels' Tears (4:34)
10. Érkezés (3:00)

Qobuz


foobar2000 1.3.9 / Dynamic Range Meter 1.1.1
log date: 2019-12-02 21:48:17

--------------------------------------------------------------------------------
Analyzed: FELYSA / Senses
--------------------------------------------------------------------------------

DR Peak RMS Duration Track
--------------------------------------------------------------------------------
DR7 -0.44 dB -10.42 dB 3:23 01-Life In A Dream
DR7 -1.00 dB -10.65 dB 3:37 02-Far Away
DR8 -1.00 dB -11.78 dB 3:14 03-New York Déjá Vu
DR9 -1.00 dB -13.79 dB 3:15 04-Michelle
DR8 -0.50 dB -11.29 dB 4:59 05-Nouveau Paris
DR9 -0.89 dB -11.83 dB 3:41 06-Hourglass
DR8 -1.00 dB -9.89 dB 3:15 07-Be My Baby
DR8 -1.00 dB -10.54 dB 3:18 08-Shooting Star
DR10 -1.00 dB -14.45 dB 4:34 09-Angels' Tears
DR6 -1.02 dB -8.61 dB 3:00 10-Érkezés
--------------------------------------------------------------------------------

Number of tracks: 10
Official DR value: DR8

Samplerate: 48000 Hz
Channels: 2
Bits per sample: 24
Bitrate: 1703 kbps
Codec: FLAC
================================================================================



Комментарии (2)


3 декабря 2019
yuriy75   
+1 
PR:XCityXXX GBXXX GBПостовХС
В
Л
Х

большое спасибо за релиз!!!


3 декабря 2019
Snumrik   
+2 
PR:XCityXXX GBXXX GBПостовХС
В
Л
Х

Большое спасибо.



 

Похожие альбомы

Felysa - Senses (2019)

28 ноября 2019
Jazz  Vocal jazz
Please enable Javascript!
Пожалуйста включите Javascript, иначе данный и другие сайты могут работать не корректно! Узнать как включить Javascript можно на Google Support