Категории
Добро пожаловать на музыкальный торрент трекер без регистрации - Sound-Park  ι  Стать пользователем  ι  Войти  ι  Напомнить пароль?

Tarja - In The Raw (Lossless, Hi Res 2019)

Symphonic Metal  Neoclassical  Metal
 
Tarja - In The Raw (Lossless, Hi Res 2019)
Tarja - In The Raw (Lossless, Hi Res 2019)
Дата: 30 августа 2019
Добавил: StasOn11
Просмотров: 3315
  • ИСПОЛНИТЕЛЬ: Tarja
  • АЛЬБОМ / НАЗВАНИЕ: In The Raw
  • ГОД / ДАТА ВЫХОДА: 2019
  • СТРАНА: Finland
  • ТОЧНЫЙ ЖАНР(Ы): Symphonic, Neo-Classical Metal
  • ЛЕЙБЛ: earMUSIC
  • ПРОДОЛЖИТЕЛЬНОСТЬ: 00:57:17
  • ФОРМАТ: FLAC, (tracks) 24 bits, 44,1 KHz
  • КАЧЕСТВО: Lossless
  • Оф сайт: tarjaturunen.com

  • РЕЙТИНГ: 9 / 8    
  • ГОЛОСОВАТЬ:

  • СКАЧАТЬ: ПРЯМАЯ ССЫЛКА НА ТОРРЕНТ
  • СИДЫ:

Описание альбома



01. Dead Promises (5:50)
02. Goodbye Stranger (5:12)
03. Tears in Rain (4:28)
04. Railroads (4:01)
05. You and I (4:08)
06. The Golden Chamber: Awaken / Loputon Yö / The Alchemy (7:05)
07. Spirits of the Sea (6:56)
08. Silent Masquerade (7:32)
09. Serene (4:42)
10. Shadow Play (7:23)

HA

Источник (релизер): Andromaxvic

Tarja - Vocals, Piano (2004-present) (Harus, Noche Escandinava, Outlanders, ex-Nightwish, ex-Asspera (live))
Max Lilja - Cello (2007-present) (Eilera (live), ex-Apocalyptica, ex-Hevein)
Alex Scholpp - Guitars (2007-present) (Farmer Boys, Sinner, Tieflader, Dacia and the Weapons of Mass Destruction)
Christian Kretschmar - Keyboards, Piano, Hammond organ (2009-present)
Kevin Chown - Bass (2010-present) (Cosmosquad, Sebastian Bach (live), ex-Edwin Dare, Pleezer, ex-Artension, ex-Tiles, ex-Tony MacAlpine, ex-John West, ex-Magnitude 9, ex-Cozy Powell's Hammer, ex-Mike Terrana)




foobar2000 1.4.6 / Замер динамического диапазона (DR) 1.1.1
Дата отчёта: 2019-08-30 02:44:59

--------------------------------------------------------------------------------
Анализ: Tarja / In the Raw
--------------------------------------------------------------------------------

DR Пики RMS Продолжительность трека
--------------------------------------------------------------------------------
DR6 0.00 дБ -7.67 дБ 5:50 01-Dead Promises
DR6 0.00 дБ -7.77 дБ 5:12 02-Goodbye Stranger
DR5 0.00 дБ -7.26 дБ 4:28 03-Tears in Rain
DR6 0.00 дБ -9.00 дБ 4:01 04-Railroads
DR8 -0.18 дБ -11.68 дБ 4:08 05-You and I
DR8 0.00 дБ -11.35 дБ 7:05 06-The Golden Chamber: Awaken / Loputon Yö / The Alchemy
DR6 0.00 дБ -8.27 дБ 6:56 07-Spirits of the Sea
DR6 0.00 дБ -9.16 дБ 7:32 08-Silent Masquerade
DR6 0.00 дБ -7.67 дБ 4:42 09-Serene
DR6 0.00 дБ -9.15 дБ 7:23 10-Shadow Play
--------------------------------------------------------------------------------

Количество треков: 10
Реальные значения DR: DR6

Частота: 44100 Гц
Каналов: 2
Разрядность: 24
Битрейт: 1550 кбит/с
Кодек: FLAC
================================================================================



Комментарии (6)


3 сентября 2019
poshoclin   
0 
PR:XCityXXX GBXXX GBПостовХС
В
Л
Х

Muchas Gracias!!!


1 сентября 2019
hanemmetal   
0 
PR:XCityXXX GBXXX GBПостовХС
В
Л
Х

thanks


1 сентября 2019
hanemmetal   
0 
PR:XCityXXX GBXXX GBПостовХС
В
Л
Х

Hay buenas rolas hay que esperar a escuchar todo el disco


31 августа 2019
Turkirdur   
0 
PR:XCityXXX GBXXX GBПостовХС
В
Л
Х

THANKS


31 августа 2019
lissa66x   
0 
PR:XCityXXX GBXXX GBПостовХС
В
Л
Х

THANKS !!!


30 августа 2019
METALSHOP   
+1 
PR:XCityXXX GBXXX GBПостовХС
В
Л
Х

THANKS.



 

Похожие альбомы

+ Показать ещё
Please enable Javascript!
Пожалуйста включите Javascript, иначе данный и другие сайты могут работать не корректно! Узнать как включить Javascript можно на Google Support