Категории
Добро пожаловать на музыкальный торрент трекер без регистрации - Sound-Park  ι  Стать пользователем  ι  Войти  ι  Напомнить пароль?

Ben Walker - Echo (Lossless, Hi Res 2019)

Folk
 
Дата: 10 июля 2019
Добавил: StasOn11
Просмотров: 392
  • ИСПОЛНИТЕЛЬ: Ben Walker
  • АЛЬБОМ / НАЗВАНИЕ: Echo
  • ГОД / ДАТА ВЫХОДА: 2019
  • СТРАНА: United Kingdom
  • ТОЧНЫЙ ЖАНР(Ы): Celtic, Modern Folk
  • ЛЕЙБЛ: © 2019 Folkroom Records
  • ПРОДОЛЖИТЕЛЬНОСТЬ: 00:39:08
  • ФОРМАТ: FLAC, (tracks) 24 bits, 48 KHz
  • КАЧЕСТВО: Lossless
  • Оф сайт: benwalkermusic.com

  • РЕЙТИНГ: 10 / 3    
  • ГОЛОСОВАТЬ:

  • СКАЧАТЬ: ПРЯМАЯ ССЫЛКА НА ТОРРЕНТ
  • СИДЫ:

Описание альбома



01. Afon
02. The Ecchoing Green (feat. Thom Ashworth)
03. Ha'nacker Mill (feat. Laura Hockenhull)
04. Rings
05. Let Me In At The Door (feat. Hazel Askew)
06. Cross Fell
07. On Humber Bank (feat. Laura Ward)
08. How Stands The Glass Around (feat. Jinnwoo)
09. The Island (feat. Bella Hardy)
10. Nurses' Songs (feat. Kitty Macfarlane)
11. Eostre

Qobuz

Источник (релизер): Stephenten

Ben Walker was recently hailed as one of the best acoustic guitarists in the world right now by Total Guitar magazine. A versatile composer as well as a celebrated instrumentalist, his passion is putting old jewels in new settings. After six critically acclaimed albums and a BBC Folk Award as a duo with Josienne Clarke and more than fifty records as a producer of other artists, Ben Walker's signature style has been sought out from punk to Proms, from Rough Trade to the Royal Shakespeare Company.

In divided times, Echo reflects centuries-old words back to us for today, reimagined in new music. Examining traces of the past to help make sense of an uncertain present, Ben found that some things never grow old; the cycles of life, the sound of the land and the water, stories of loss of innocence, of pride and shame, hope and fear. Drawing on field recordings from the EFDSS library, the newly established Sussex Tradition archive and lyrics from the 18th and 19th centuries, with composition influenced by contemporary classical and electronic music and Ben's trademark fingerstyle. Echo combines original instrumental pieces, traditional songs and poems set to music, "there's a touch of hauntology to it all – the shadows of the past are always there in the future, whether we like it or not. Weirdly, I've found a little solace in the fact that some things come and go, and some things stay." The album also features Bella Hardy, Kitty MacFarlane, JinWoo, Laura Hockehull, Hazel Askew, Laura Ward, Thom Ashworth

Ben Walker, guitar, vocals
Kitty Macfarlan, vocals
Basia Bartz, viloin
Anna Jenkins, violin, viola
Jo Silverston, cello
John Parker, double bass
Bella Hardy, fiddle (on The Island)
Laura Ward, flute (on Eostre)
Katherine Price, oboe (on Eostre)


foobar2000 1.4 / Dynamic Range Meter 1.1.1
log date: 2019-07-06 08:20:50

--------------------------------------------------------------------------------
Analyzed: Ben Walker / Echo
--------------------------------------------------------------------------------

DR Peak RMS Duration Track
--------------------------------------------------------------------------------
DR11 -0.48 dB -15.98 dB 3:02 01-Afon
DR9 -0.48 dB -12.30 dB 2:30 02-The Ecchoing Green
DR12 -0.48 dB -15.41 dB 2:50 03-Ha'nacker Mill
DR8 -0.48 dB -12.69 dB 5:52 04-Rings
DR8 -0.48 dB -12.17 dB 3:22 05-Let Me In At The Door
DR12 -0.48 dB -16.16 dB 3:34 06-Cross Fell
DR8 -0.48 dB -10.50 dB 4:37 07-On Humber Bank
DR9 -0.48 dB -12.27 dB 3:28 08-How Stands The Glass Around
DR12 -0.48 dB -17.09 dB 4:02 09-The Island
DR10 -0.48 dB -14.48 dB 3:08 10-Nurses' Songs
DR11 -0.67 dB -18.68 dB 2:48 11-Eostre
--------------------------------------------------------------------------------

Number of tracks: 11
Official DR value: DR10
Samplerate: 48000 Hz
Channels: 2
Bits per sample: 24
Bitrate: 1372 kbps
Codec: FLAC
================================================================================



Комментарии (2)


12 июля 2019
kidogo   
0 
PR:XCityXXX GBXXX GBПостовХС
В
Л
Х

Merci


11 июля 2019
Bagdee   
+1 
PR:XCityXXX GBXXX GBПостовХС
В
Л
Х

Grand merci



 

Похожие альбомы

Ben Walker - Echo (2019)

10 июля 2019
Folk
Please enable Javascript!
Пожалуйста включите Javascript, иначе данный и другие сайты могут работать не корректно! Узнать как включить Javascript можно на Google Support