Категории
Добро пожаловать на музыкальный торрент трекер без регистрации - Sound-Park  ι  Стать пользователем  ι  Войти  ι  Напомнить пароль?

Нашему проекту исполняется 10 лет! В связи с этим мы готовим крутейшую современную обнову. Вы можете нам помочь 🤘


Darkthrone - Old Star (Lossless, Hi Res 2019)

Black Metal
 
Дата: 1 июня 2019
Добавил: StasOn11
Просмотров: 933
  • ИСПОЛНИТЕЛЬ: Darkthrone
  • АЛЬБОМ / НАЗВАНИЕ: Old Star
  • ГОД / ДАТА ВЫХОДА: 2019
  • СТРАНА: Norway
  • ТОЧНЫЙ ЖАНР(Ы): Black Metal
  • ЛЕЙБЛ: © (C) 2019 Peaceville Records
  • ПРОДОЛЖИТЕЛЬНОСТЬ: 00:38:09
  • ФОРМАТ: FLAC, (tracks) 24 bits, 44,1 KHz
  • КАЧЕСТВО: Lossless

  • РЕЙТИНГ: 10 / 3    
  • ГОЛОСОВАТЬ:

  • СКАЧАТЬ: ПРЯМАЯ ССЫЛКА НА ТОРРЕНТ
  • СИДЫ:

Описание альбома



01. I Muffle Your Inner Choir (6:26)
02. The Hardship of the Scots (7:36)
03. Old Star (4:28)
04. Alp Man (5:27)
05. Duke of Gloat (6:49)
06. The Key is Inside the Wall (7:23)

Qobuz

Источник (релизер): Andromaxvic


foobar2000 1.4.3 / Замер динамического диапазона (DR) 1.1.1
Дата отчёта: 2019-05-31 17:45:16

--------------------------------------------------------------------------------
Анализ: Darkthrone / Old Star
--------------------------------------------------------------------------------

DR Пики RMS Продолжительность трека
--------------------------------------------------------------------------------
DR8 -0.98 дБ -9.03 дБ 6:26 01-I Muffle Your Inner Choir
DR8 -0.98 дБ -9.08 дБ 7:36 02-The Hardship of the Scots
DR7 -0.98 дБ -8.94 дБ 4:28 03-Old Star
DR7 -0.98 дБ -8.78 дБ 5:27 04-Alp Man
DR8 -0.98 дБ -9.15 дБ 6:49 05-Duke of Gloat
DR7 -0.98 дБ -8.86 дБ 7:23 06-The Key is Inside the Wall
--------------------------------------------------------------------------------

Количество треков: 6
Реальные значения DR: DR7

Частота: 44100 Гц
Каналов: 2
Разрядность: 24
Битрейт: 1746 кбит/с
Кодек: FLAC
================================================================================



Комментарии (2)


2 июня 2019
lanavarro66   
0 
PR:XCityXXX GBXXX GBПостовХС
В
Л
Х

great


1 июня 2019
METALSHOP   
0 
PR:XCityXXX GBXXX GBПостовХС
В
Л
Х

THANKS.



 

Похожие альбомы

+ Показать ещё
Please enable Javascript!
Пожалуйста включите Javascript, иначе данный и другие сайты могут работать не корректно! Узнать как включить Javascript можно на Google Support