Категории
Добро пожаловать на музыкальный торрент трекер без регистрации - Sound-Park  ι  Стать пользователем  ι  Войти  ι  Напомнить пароль?

Anderson .Paak - Ventura (Lossless, Hi Res 2019)

R&B (Nu Soul)  Rap  Funk  Soul
 
Дата: 11 апреля 2019
Добавил: StasOn11
Просмотров: 733
  • ИСПОЛНИТЕЛЬ: Anderson .Paak
  • АЛЬБОМ / НАЗВАНИЕ: Ventura
  • ГОД / ДАТА ВЫХОДА: 2019
  • СТРАНА: United States
  • ТОЧНЫЙ ЖАНР(Ы): RnB, Hip-Hop, Funk, Soul
  • ЛЕЙБЛ: Aftermath / 12 Tone Music, LLC
  • ПРОДОЛЖИТЕЛЬНОСТЬ: 00:39:36
  • ФОРМАТ: FLAC, (tracks) 24 bits, 44,1 KHz
  • КАЧЕСТВО: Lossless
  • Оф сайт: buy.andersonpaak.com

  • РЕЙТИНГ: 10 / 4    
  • ГОЛОСОВАТЬ:

  • СКАЧАТЬ: ПРЯМАЯ ССЫЛКА НА ТОРРЕНТ

Описание альбома



1. Come Home (feat. André 3000) (04:26)
2. Make It Better (feat. Smokey Robinson) (03:39)
3. Reachin' 2 Much (feat. Lalah Hathaway) (05:55)
4. Winners Circle (03:29)
5. Good Heels (feat. Jazmine Sullivan) (01:38)
6. Yada Yada (03:27)
7. King James (03:17)
8. Chosen One (feat. Sonyae Elise) (04:05)
9. Jet Black (feat. Brandy) (03:28)
10. Twilight (03:16)
11. What Can We Do? (feat. Nate Dogg) (02:56)

Smarturl
Andersonpaak

Источник (релизер): Afro-Samurai

Четвёртый студийный альбом калифорнийского R&B-певца и барабанщика Андерсона Паака, записанный при участии соул-певца Смоки Робинсона, André 3000 из дуэта Outkast, певиц Brandy, Лалы Хэтуэй и Джазмин Салливан, покойного Nate Dogg и многих других.


foobar2000 1.3.19 / Замер динамического диапазона (DR) 1.1.1
Дата отчёта: 2019-04-11 14:14:40

--------------------------------------------------------------------------------
Анализ: Anderson .Paak / Ventura
--------------------------------------------------------------------------------

DR Пики RMS Продолжительность трека
--------------------------------------------------------------------------------
DR7 -0.10 дБ -8.79 дБ 4:27 01-Come Home (feat. André 3000)
DR7 -0.09 дБ -8.34 дБ 3:39 02-Make It Better (feat. Smokey Robinson)
DR7 -0.09 дБ -7.82 дБ 5:55 03-Reachin' 2 Much (feat. Lalah Hathaway)
DR7 -0.10 дБ -8.99 дБ 3:29 04-Winners Circle
DR8 -0.06 дБ -10.58 дБ 1:38 05-Good Heels (feat. Jazmine Sullivan)
DR8 -0.10 дБ -10.23 дБ 3:28 06-Yada Yada
DR8 -0.10 дБ -9.22 дБ 3:18 07-King James
DR7 -0.10 дБ -8.63 дБ 4:05 08-Chosen One (feat. Sonyae Elise)
DR7 -0.10 дБ -8.29 дБ 3:28 09-Jet Black (feat. Brandy)
DR7 -0.10 дБ -8.06 дБ 3:16 10-Twilight
DR7 -0.10 дБ -9.16 дБ 2:56 11-What Can We Do? (feat. Nate Dogg)
--------------------------------------------------------------------------------

Количество треков: 11
Реальные значения DR: DR7

Частота: 44100 Гц
Каналов: 2
Разрядность: 24
Битрейт: 1617 кбит/с
Кодек: FLAC
================================================================================



Комментарии (1)


11 апреля 2019
Bagdee   
+1 
PR:XCityXXX GBXXX GBПостовХС
В
Л
Х

Thank you



 

Похожие альбомы

Please enable Javascript!
Пожалуйста включите Javascript, иначе данный и другие сайты могут работать не корректно! Узнать как включить Javascript можно на Google Support