Категории
Добро пожаловать на музыкальный торрент трекер без регистрации - Sound-Park  ι  Стать пользователем  ι  Войти  ι  Напомнить пароль?

Нашему проекту исполняется 10 лет! В связи с этим мы готовим крутейшую современную обнову. Вы можете нам помочь 🤘


Billie Eilish - When We All Fall Asleep, Where Do We Go? (Japan Bonus Tracks) (lossless, 2019)

Indie POP
 
Дата: 10 апреля 2019
Добавил: StasOn11
Просмотров: 5110
  • ИСПОЛНИТЕЛЬ: Billie Eilish
  • АЛЬБОМ / НАЗВАНИЕ: When We All Fall Asleep, Where Do We Go? (Japan Bonus Tracks)
  • ГОД / ДАТА ВЫХОДА: 2019
  • СТРАНА: United States
  • ТОЧНЫЙ ЖАНР(Ы): Indie Pop
  • ЛЕЙБЛ: Darkroom / Interscope Records - UICS-1350
  • ПРОДОЛЖИТЕЛЬНОСТЬ: 00:50:56
  • ФОРМАТ: FLAC, (tracks + .cue)
  • КАЧЕСТВО: Lossless

  • РЕЙТИНГ: 8.2 / 10    
  • ГОЛОСОВАТЬ:

  • СКАЧАТЬ: ПРЯМАЯ ССЫЛКА НА ТОРРЕНТ
  • СИДЫ:

Описание альбома



01. !!!!!!! (00:13)
02. Bad Guy (03:14)
03. Xanny (04:03)
04. You Should See Me in a Crown (03:00)
05. All the Good Girls Go to Hell (02:48)
06. Wish You Were Gay (03:41)
07. When the Party's Over (03:16)
08. 8 (02:53)
09. My Strange Addiction (02:59)
10. Bury a Friend (03:13)
11. Ilomilo (02:36)
12. Listen Before I Go (04:02)
13. I Love You (04:51)
14. Goodbye (01:59)

Japan edition (bonus tracks):

15. Come Out & Play (03:30)
16. When I Was Older (04:30)

Источник (релизер): Afro-Samurai
Когда мы все засыпаем, куда мы идем? Дебютный полноформатный студийный альбом калифорнийской певицы, автора песен и танцовщицы Билли Айлиш, полностью написанный и спродюсированный 17-летней артисткой вместе с братом Финнеасом О'Коннеллом в доме их детства. Билли обладает неземным инди-электро-поп вокалом и будучи семнадцатилетним подростком является кумиром миллионов. Родилась и выросла в Лос-Анджелесе, в семье актеров и музыкантов, а недавно Билли получила наградную доску за 300 миллионов комбинированных прослушиваний песен по Великобритании...


Exact Audio Copy V1.3 from 2. September 2016

EAC extraction logfile from 9. April 2019, 22:20

When We Fall Asleep, Where Do We Go? / Billie Eilish

Used drive : ASUS BW-16D1X-U Adapter: 1 ID: 0

Read mode : Secure
Utilize accurate stream : Yes
Defeat audio cache : Yes
Make use of C2 pointers : No

Read offset correction : 667
Overread into Lead-In and Lead-Out : No
Fill up missing offset samples with silence : Yes
Delete leading and trailing silent blocks : No
Null samples used in CRC calculations : Yes
Used interface : Native Win32 interface for Win NT & 2000
Gap handling : Appended to previous track

Used output format : User Defined Encoder
Selected bitrate : 1024 kBit/s
Quality : High
Add ID3 tag : No
Command line compressor : C:UserschemotonPTH Toolbox V2 - WindowsCodecsflac-1.3.2-winflac-1.3.2-winwin64flac.exe
Additional command line options : -8 -V -T "ARTIST=%artist%" -T "TITLE=%title%" -T "ALBUM=%albumtitle%" -T "DATE=%year%" -T "TRACKNUMBER=%tracknr%" -T "GENRE=%genre%" -T "PERFORMER=%albuminterpret%" -T "COMPOSER=%composer%" %haslyrics%--tag-from-file=LYRICS="%lyricsfile%"%haslyrics% -T "ALBUMARTIST=%albumartist%" -T "DISCNUMBER=%cdnumber%" -T "TOTALDISCS=%totalcds%" -T "TOTALTRACKS=%numtracks%" -T "COMMENT=%comment%" %source% -o %dest%

TOC of the extracted CD

Track | Start | Length | Start sector | End sector
---------------------------------------------------------
1 | 0:00.00 | 0:13.43 | 0 | 1017
2 | 0:13.43 | 3:14.06 | 1018 | 15573
3 | 3:27.49 | 4:03.55 | 15574 | 33853
4 | 7:31.29 | 3:00.71 | 33854 | 47424
5 | 10:32.25 | 2:48.63 | 47425 | 60087
6 | 13:21.13 | 3:41.41 | 60088 | 76703
7 | 17:02.54 | 3:16.06 | 76704 | 91409
8 | 20:18.60 | 2:53.15 | 91410 | 104399
9 | 23:12.00 | 2:59.67 | 104400 | 117891
10 | 26:11.67 | 3:13.10 | 117892 | 132376
11 | 29:25.02 | 2:36.28 | 132377 | 144104
12 | 32:01.30 | 4:02.49 | 144105 | 162303
13 | 36:04.04 | 4:51.60 | 162304 | 184188
14 | 40:55.64 | 1:59.32 | 184189 | 193145
15 | 42:55.21 | 3:30.28 | 193146 | 208923
16 | 46:25.49 | 4:30.39 | 208924 | 229212

Track 1

Filename D:CHEMOTONTO.UPLOADBillie Eilish - When We All Fall Asleep, Where Do We Go (2019) [CD-FLAC 16-44] {Japan UICS-1350}1 - !!!!!!!.wav

Pre-gap length 0:00:02.00

Peak level 61.6 %
Extraction speed 1.3 X
Track quality 100.0 %
Test CRC F3BEA0A1
Copy CRC F3BEA0A1
Track not present in AccurateRip database
Copy OK

Track 2

Filename D:CHEMOTONTO.UPLOADBillie Eilish - When We All Fall Asleep, Where Do We Go (2019) [CD-FLAC 16-44] {Japan UICS-1350}2 - bad guy.wav

Peak level 96.8 %
Extraction speed 4.4 X
Track quality 100.0 %
Test CRC A1D50686
Copy CRC A1D50686
Track not present in AccurateRip database
Copy OK

Track 3

Filename D:CHEMOTONTO.UPLOADBillie Eilish - When We All Fall Asleep, Where Do We Go (2019) [CD-FLAC 16-44] {Japan UICS-1350}3 - xanny.wav

Peak level 96.7 %
Extraction speed 5.0 X
Track quality 100.0 %
Test CRC 8B799CC4
Copy CRC 8B799CC4
Track not present in AccurateRip database
Copy OK

Track 4

Filename D:CHEMOTONTO.UPLOADBillie Eilish - When We All Fall Asleep, Where Do We Go (2019) [CD-FLAC 16-44] {Japan UICS-1350}4 - you should see me in a crown.wav

Peak level 96.6 %
Extraction speed 4.4 X
Track quality 99.9 %
Test CRC 06D2E7B5
Copy CRC 06D2E7B5
Track not present in AccurateRip database
Copy OK

Track 5

Filename D:CHEMOTONTO.UPLOADBillie Eilish - When We All Fall Asleep, Where Do We Go (2019) [CD-FLAC 16-44] {Japan UICS-1350}5 - all the good girls go to hell.wav

Peak level 96.6 %
Extraction speed 5.3 X
Track quality 100.0 %
Test CRC 9746EE32
Copy CRC 9746EE32
Track not present in AccurateRip database
Copy OK

Track 6

Filename D:CHEMOTONTO.UPLOADBillie Eilish - When We All Fall Asleep, Where Do We Go (2019) [CD-FLAC 16-44] {Japan UICS-1350}6 - wish you were gay.wav

Peak level 96.8 %
Extraction speed 5.8 X
Track quality 100.0 %
Test CRC D20EC29E
Copy CRC D20EC29E
Track not present in AccurateRip database
Copy OK

Track 7

Filename D:CHEMOTONTO.UPLOADBillie Eilish - When We All Fall Asleep, Where Do We Go (2019) [CD-FLAC 16-44] {Japan UICS-1350}7 - when the party's over.wav

Peak level 97.7 %
Extraction speed 6.0 X
Track quality 100.0 %
Test CRC 81047552
Copy CRC 81047552
Track not present in AccurateRip database
Copy OK

Track 8

Filename D:CHEMOTONTO.UPLOADBillie Eilish - When We All Fall Asleep, Where Do We Go (2019) [CD-FLAC 16-44] {Japan UICS-1350}8 - 8.wav

Peak level 96.7 %
Extraction speed 6.1 X
Track quality 100.0 %
Test CRC 43E037A1
Copy CRC 43E037A1
Track not present in AccurateRip database
Copy OK

Track 9

Filename D:CHEMOTONTO.UPLOADBillie Eilish - When We All Fall Asleep, Where Do We Go (2019) [CD-FLAC 16-44] {Japan UICS-1350}9 - my strange addiction.wav

Peak level 96.8 %
Extraction speed 5.5 X
Track quality 99.9 %
Test CRC 4817E79F
Copy CRC 4817E79F
Track not present in AccurateRip database
Copy OK

Track 10

Filename D:CHEMOTONTO.UPLOADBillie Eilish - When We All Fall Asleep, Where Do We Go (2019) [CD-FLAC 16-44] {Japan UICS-1350}10 - bury a friend.wav

Peak level 96.7 %
Extraction speed 6.7 X
Track quality 100.0 %
Test CRC C013AE5F
Copy CRC C013AE5F
Track not present in AccurateRip database
Copy OK

Track 11

Filename D:CHEMOTONTO.UPLOADBillie Eilish - When We All Fall Asleep, Where Do We Go (2019) [CD-FLAC 16-44] {Japan UICS-1350}11 - ilomilo.wav

Peak level 96.9 %
Extraction speed 5.6 X
Track quality 99.9 %
Test CRC 6B8DBD63
Copy CRC 6B8DBD63
Track not present in AccurateRip database
Copy OK

Track 12

Filename D:CHEMOTONTO.UPLOADBillie Eilish - When We All Fall Asleep, Where Do We Go (2019) [CD-FLAC 16-44] {Japan UICS-1350}12 - listen before i go.wav

Peak level 96.8 %
Extraction speed 6.5 X
Track quality 99.9 %
Test CRC 7F3FB0C7
Copy CRC 7F3FB0C7
Track not present in AccurateRip database
Copy OK

Track 13

Filename D:CHEMOTONTO.UPLOADBillie Eilish - When We All Fall Asleep, Where Do We Go (2019) [CD-FLAC 16-44] {Japan UICS-1350}13 - i love you.wav

Peak level 96.7 %
Extraction speed 7.1 X
Track quality 99.9 %
Test CRC FAF9ACFF
Copy CRC FAF9ACFF
Track not present in AccurateRip database
Copy OK

Track 14

Filename D:CHEMOTONTO.UPLOADBillie Eilish - When We All Fall Asleep, Where Do We Go (2019) [CD-FLAC 16-44] {Japan UICS-1350}14 - goodbye.wav

Peak level 96.7 %
Extraction speed 6.8 X
Track quality 100.0 %
Test CRC 20665F36
Copy CRC 20665F36
Track not present in AccurateRip database
Copy OK

Track 15

Filename D:CHEMOTONTO.UPLOADBillie Eilish - When We All Fall Asleep, Where Do We Go (2019) [CD-FLAC 16-44] {Japan UICS-1350}15 - come out and play.wav

Peak level 100.0 %
Extraction speed 7.7 X
Track quality 100.0 %
Test CRC 2D88427D
Copy CRC 2D88427D
Track not present in AccurateRip database
Copy OK

Track 16

Filename D:CHEMOTONTO.UPLOADBillie Eilish - When We All Fall Asleep, Where Do We Go (2019) [CD-FLAC 16-44] {Japan UICS-1350}16 - WHEN I WAS OLDER (Muisic inspired by the film ROMA).wav

Peak level 98.0 %
Extraction speed 8.2 X
Track quality 100.0 %
Test CRC 3794D933
Copy CRC 3794D933
Track not present in AccurateRip database
Copy OK

None of the tracks are present in the AccurateRip database

No errors occurred

End of status report

---- CUETools DB Plugin V2.1.6

[CTDB TOCID: 2CJ_Z2ofkVTKqPpErVpuVNRC6V8-] found
Submit result: 2CJ_Z2ofkVTKqPpErVpuVNRC6V8- has been confirmed
Track | CTDB Status
1 | (5/5) Accurately ripped
2 | (5/5) Accurately ripped
3 | (5/5) Accurately ripped
4 | (5/5) Accurately ripped
5 | (5/5) Accurately ripped
6 | (5/5) Accurately ripped
7 | (5/5) Accurately ripped
8 | (5/5) Accurately ripped
9 | (5/5) Accurately ripped
10 | (5/5) Accurately ripped
11 | (5/5) Accurately ripped
12 | (5/5) Accurately ripped
13 | (5/5) Accurately ripped
14 | (5/5) Accurately ripped
15 | (5/5) Accurately ripped
16 | (4/5) Accurately ripped

==== Log checksum 64E05D9D1F94827B546E8B6C55DAE58ACC3A595EDDF0C0D8D7F3ABDB405F0C58 ====

REM DATE 2019
REM DISCID D60BF010
REM COMMENT "ExactAudioCopy v1.3"
CATALOG 0602577551444
PERFORMER "When We Fall Asleep, Where Do We Go?"
TITLE "Billie Eilish"
REM COMPOSER ""
FILE "01 - !!!!!!!.wav" WAVE
TRACK 01 AUDIO
TITLE "!!!!!!!"
PERFORMER "When We Fall Asleep, Where Do We Go?"
REM COMPOSER ""
ISRC USUM71900763
INDEX 01 00:00:00
FILE "02 - bad guy.wav" WAVE
TRACK 02 AUDIO
TITLE "bad guy"
PERFORMER "When We Fall Asleep, Where Do We Go?"
REM COMPOSER ""
ISRC USUM71900764
INDEX 01 00:00:00
FILE "03 - xanny.wav" WAVE
TRACK 03 AUDIO
TITLE "xanny"
PERFORMER "When We Fall Asleep, Where Do We Go?"
REM COMPOSER ""
ISRC USUM71900765
INDEX 01 00:00:00
FILE "04 - you should see me in a crown.wav" WAVE
TRACK 04 AUDIO
TITLE "you should see me in a crown"
PERFORMER "When We Fall Asleep, Where Do We Go?"
REM COMPOSER ""
ISRC USUM71810049
INDEX 01 00:00:00
FILE "05 - all the good girls go to hell.wav" WAVE
TRACK 05 AUDIO
TITLE "all the good girls go to hell"
PERFORMER "When We Fall Asleep, Where Do We Go?"
REM COMPOSER ""
ISRC USUM71900766
INDEX 01 00:00:00
FILE "06 - wish you were gay.wav" WAVE
TRACK 06 AUDIO
TITLE "wish you were gay"
PERFORMER "When We Fall Asleep, Where Do We Go?"
REM COMPOSER ""
ISRC USUM71900767
INDEX 01 00:00:00
FILE "07 - when the party's over.wav" WAVE
TRACK 07 AUDIO
TITLE "when the party's over"
PERFORMER "When We Fall Asleep, Where Do We Go?"
REM COMPOSER ""
ISRC USUM71815958
INDEX 01 00:00:00
FILE "08 - 8.wav" WAVE
TRACK 08 AUDIO
TITLE "8"
PERFORMER "When We Fall Asleep, Where Do We Go?"
REM COMPOSER ""
ISRC USUM71900768
INDEX 01 00:00:00
FILE "09 - my strange addiction.wav" WAVE
TRACK 09 AUDIO
TITLE "my strange addiction"
PERFORMER "When We Fall Asleep, Where Do We Go?"
REM COMPOSER ""
ISRC USUM71900769
INDEX 01 00:00:00
FILE "10 - bury a friend.wav" WAVE
TRACK 10 AUDIO
TITLE "bury a friend"
PERFORMER "When We Fall Asleep, Where Do We Go?"
REM COMPOSER ""
ISRC USUM71900770
INDEX 01 00:00:00
FILE "11 - ilomilo.wav" WAVE
TRACK 11 AUDIO
TITLE "ilomilo"
PERFORMER "When We Fall Asleep, Where Do We Go?"
REM COMPOSER ""
ISRC USUM71900771
INDEX 01 00:00:00
FILE "12 - listen before i go.wav" WAVE
TRACK 12 AUDIO
TITLE "listen before i go"
PERFORMER "When We Fall Asleep, Where Do We Go?"
REM COMPOSER ""
ISRC USUM71900772
INDEX 01 00:00:00
FILE "13 - i love you.wav" WAVE
TRACK 13 AUDIO
TITLE "i love you"
PERFORMER "When We Fall Asleep, Where Do We Go?"
REM COMPOSER ""
ISRC USUM71900773
INDEX 01 00:00:00
FILE "14 - goodbye.wav" WAVE
TRACK 14 AUDIO
TITLE "goodbye"
PERFORMER "When We Fall Asleep, Where Do We Go?"
REM COMPOSER ""
ISRC USUM71900774
INDEX 01 00:00:00
FILE "15 - come out and play.wav" WAVE
TRACK 15 AUDIO
TITLE "come out and play"
PERFORMER "When We Fall Asleep, Where Do We Go?"
REM COMPOSER ""
ISRC USUM71818958
INDEX 01 00:00:00
FILE "16 - WHEN I WAS OLDER (Muisic inspired by the film ROMA).wav" WAVE
TRACK 16 AUDIO
TITLE "WHEN I WAS OLDER (Muisic inspired by the film ROMA)"
PERFORMER "When We Fall Asleep, Where Do We Go?"
REM COMPOSER ""
ISRC USUM71900059
INDEX 01 00:00:00



Комментарии (1)


10 апреля 2019
Bagdee   
+4 
PR:XCityXXX GBXXX GBПостовХС
В
Л
Х

Thank you





Похожие альбомы

+ Показать ещё
  • Billie Eilish - When We All Fall Asleep, Where Do We Go? (Japan Bonus Tracks) (lossless, 2019)
  • Billie Eilish - When We All Fall Asleep, Where Do We Go? (Japan Bonus Tracks) (lossless, 2019) - скачать торрент бесплатно.

    Скачать альбом Billie Eilish - When We All Fall Asleep, Where Do We Go? (Japan Bonus Tracks) (lossless, 2019) бесплатно и без регистрации через торрент в Lossless.

    Скачать торрент вы можете в начале страницы.

    Найти другие альбомы и музыку Billie Eilish


Please enable Javascript!
Пожалуйста включите Javascript, иначе данный и другие сайты могут работать не корректно! Узнать как включить Javascript можно на Google Support