Категории
Добро пожаловать на музыкальный торрент трекер без регистрации - Sound-Park  ι  Стать пользователем  ι  Войти  ι  Напомнить пароль?

Quiana Lynell - A Little Love (Lossless, Hi Res 2019)

Vocal jazz  Soul
 
Дата: 5 апреля 2019
Добавил: StasOn11
Просмотров: 1618
  • ИСПОЛНИТЕЛЬ: Quiana Lynell
  • АЛЬБОМ / НАЗВАНИЕ: A Little Love
  • ГОД / ДАТА ВЫХОДА: 2019
  • СТРАНА: United States
  • ТОЧНЫЙ ЖАНР(Ы): Vocal Jazz, Soul
  • ЛЕЙБЛ: © © 2019 Concord Jazz
  • ПРОДОЛЖИТЕЛЬНОСТЬ: 00:41:39
  • ФОРМАТ: FLAC, (tracks) 24 bits, 88,2 KHz
  • КАЧЕСТВО: Lossless

  • РЕЙТИНГ: 9 / 7    
  • ГОЛОСОВАТЬ:

  • СКАЧАТЬ: ПРЯМАЯ ССЫЛКА НА ТОРРЕНТ

Описание альбома



01. We Are (04:39)
02. Tyin' Times (04:33)
03. Move Me No Mountain (04:55)
04. Medley: Come Sunday / I Wish I Knew (How It Would Feel to Be Free) (05:20)
05. They All Laughed (03:35)
06. Just A Little Lovin' (Early In The Mornin') (03:20)
07. You Hit The Spot (04:53)
08. Hip Shakin' Momma (03:12)
09. What Is Love? (03:20)
10. Sing Out, March On (03:52)

Qobuz

Источник (релизер): Stephenten

A Little Love, the striking debut album from vocalist extraordinaire Quiana Lynell.

A feast of soul, gospel, R&B, groove and jazz, A Little Love blooms with songs about searching, trying times, buoyant love, deep reflection and social action. Lynell sings with the voice of authority and the takeaway from the album as a whole is honesty. She’s a truth-seeking storyteller with a spirited resolve – covering a wide range of songs from Nina Simone to Chaka Khan, from Duke to the Gershwins, from Donny Hathaway to Irma Thomas; with the bookends of the album featuring songs by powerful modern artists Alina Engibaryan and Joshuah Campbell. Accompanied by a powerhouse band featuring Cyrus Chestnut on piano, Jamison Ross on drums, Ed Cherry on guitars, George DeLancey on bass and Monte Croft on vibes, the release of A Little Love will be accompanied by tour dates including a stop at the 2019 Playboy Jazz Festival in Los Angeles in June.

Quiana Lynell, vocals
Cyrus Chestnut, piano
Ed Cherry, guitar
George DeLancey, bass
Monte Croft, vibraphone
Jamison Ross, drums


foobar2000 1.4 / Dynamic Range Meter 1.1.1
log date: 2019-04-05 05:48:01

--------------------------------------------------------------------------------
Analyzed: Quiana Lynell / A Little Love
--------------------------------------------------------------------------------

DR Peak RMS Duration Track
--------------------------------------------------------------------------------
DR9 -0.82 dB -11.93 dB 4:40 01-We Are
DR11 -0.82 dB -14.29 dB 4:34 02-Tryin' Times
DR10 -0.82 dB -12.99 dB 4:56 03-Move Me No Mountain
DR10 -0.82 dB -13.61 dB 5:21 04-Medley: Come Sunday / I Wish I Knew (How It Would Feel to Be Free)
DR10 -0.82 dB -13.48 dB 3:36 05-They All Laughed
DR11 -0.82 dB -15.40 dB 3:21 06-Just A Little Lovin' (Early In The Mornin')
DR8 -0.82 dB -11.58 dB 4:53 07-You Hit The Spot
DR9 -0.82 dB -11.94 dB 3:13 08-Hip Shakin' Momma
DR11 -2.94 dB -17.32 dB 3:20 09-What Is Love?
DR10 -0.82 dB -13.42 dB 3:52 10-Sing Out, March On
--------------------------------------------------------------------------------

Number of tracks: 10
Official DR value: DR10
Samplerate: 88200 Hz
Channels: 2
Bits per sample: 24
Bitrate: 2266 kbps
Codec: FLAC
================================================================================



Комментарии (4)


6 апреля 2019
aleox16   
0 
PR:XCityXXX GBXXX GBПостовХС
В
Л
Х

gracias


6 апреля 2019
rotihellas   
0 
PR:XCityXXX GBXXX GBПостовХС
В
Л
Х

Thanks!!


6 апреля 2019
sadunshkas   
0 
PR:XCityXXX GBXXX GBПостовХС
В
Л
Х

Thank y so much!


5 апреля 2019
Bagdee   
+2 
PR:XCityXXX GBXXX GBПостовХС
В
Л
Х

Thank you



 

Похожие альбомы

Please enable Javascript!
Пожалуйста включите Javascript, иначе данный и другие сайты могут работать не корректно! Узнать как включить Javascript можно на Google Support