Категории
Добро пожаловать на музыкальный торрент трекер без регистрации - Sound-Park  ι  Стать пользователем  ι  Войти  ι  Напомнить пароль?

Der Musikalische Garten - Brescianello: Concerti a 3, Vol. 2 (Lossless, Hi Res 2019)

Classical
 
Дата: 4 апреля 2019
Добавил: StasOn11
Просмотров: 903
  • ИСПОЛНИТЕЛЬ: Der Musikalische Garten
  • АЛЬБОМ / НАЗВАНИЕ: Brescianello: Concerti à 3, Vol. 2
  • ГОД / ДАТА ВЫХОДА: 2019
  • ТОЧНЫЙ ЖАНР(Ы): Classical
  • ЛЕЙБЛ: Coviello Classics
  • ПРОДОЛЖИТЕЛЬНОСТЬ: 00:50:10
  • ФОРМАТ: FLAC, (tracks) 24 bits, 96 KHz
  • КАЧЕСТВО: Lossless

  • РЕЙТИНГ: 10 / 6    
  • ГОЛОСОВАТЬ:

  • СКАЧАТЬ: ПРЯМАЯ ССЫЛКА НА ТОРРЕНТ
  • СИДЫ:

Описание альбома



Giuseppe Antonio Brescianello (1690-1758) :
01-03. Concerto settimo in A Minor
04-06. Concerto ottavo in D Major
07-09. Concerto nono in A Minor
10-13. Concerto decimo in D Minor
14-17. Concerto undecimo in E Minor
18-21. Concerto duodecimo in A Major

Qobuz

Источник (релизер): ipokemongo


foobar2000 1.4.2 / Dynamic Range Meter 1.1.1
log date: 2019-03-31 10:47:58

--------------------------------------------------------------------------------
Analyzed: Der Musikalische Garten / Brescianello: Concerti à 3, Vol. 2
--------------------------------------------------------------------------------

DR Peak RMS Duration Track
--------------------------------------------------------------------------------
DR13 -1.35 dB -18.40 dB 3:55 01-Concerto settimo in A Minor: I. Allegro assai
DR12 -4.78 dB -21.72 dB 2:48 02-Concerto settimo in A Minor: II. Adagio
DR12 -1.99 dB -18.54 dB 2:34 03-Concerto settimo in A Minor: III. Presto
DR13 -1.91 dB -18.89 dB 1:58 04-Concerto ottavo in D Major: I. Allegro
DR12 -4.61 dB -22.46 dB 2:40 05-Concerto ottavo in D Major: II. Adagio
DR12 -3.65 dB -19.35 dB 2:17 06-Concerto ottavo in D Major: III. Allegro
DR13 -1.28 dB -19.73 dB 2:11 07-Concerto nono in A Minor: I. Allegro spiccato
DR14 -4.57 dB -22.27 dB 1:41 08-Concerto nono in A Minor: II. Largo
DR13 -2.75 dB -19.16 dB 2:03 09-Concerto nono in A Minor: III. Minuet
DR11 -6.22 dB -21.98 dB 2:27 10-Concerto decimo in D Minor: I. Largo
DR12 -0.34 dB -17.60 dB 1:03 11-Concerto decimo in D Minor: II. Presto
DR11 -4.92 dB -21.15 dB 0:50 12-Concerto decimo in D Minor: III. Adagio
DR12 -4.47 dB -19.73 dB 1:24 13-Concerto decimo in D Minor: IV. Allegro
DR13 -4.75 dB -21.74 dB 2:41 14-Concerto undecimo in E Minor: I. Adagio
DR12 0.00 dB -19.40 dB 2:01 15-Concerto undecimo in E Minor: II. Allegro
DR13 -2.59 dB -20.74 dB 6:02 16-Concerto undecimo in E Minor: III. Largo
DR13 -2.70 dB -19.17 dB 2:50 17-Concerto undecimo in E Minor: IV. Presto
DR11 -4.66 dB -19.89 dB 1:39 18-Concerto duodecimo in A Major: I. Adagio
DR12 -2.60 dB -19.39 dB 2:28 19-Concerto duodecimo in A Major: II. Allegro
DR12 -5.28 dB -22.57 dB 2:19 20-Concerto duodecimo in A Major: III. Cantabile
DR14 -1.58 dB -19.70 dB 2:30 21-Concerto duodecimo in A Major: IV. Presto
--------------------------------------------------------------------------------

Number of tracks: 21
Official DR value: DR12

Samplerate: 96000 Hz
Channels: 2
Bits per sample: 24
Bitrate: 2821 kbps
Codec: FLAC
================================================================================



Комментарии (4)


9 апреля 2019
sorun1120   
0 
PR:XCityXXX GBXXX GBПостовХС
В
Л
Х

Thank you


4 апреля 2019
StasOn11   
+1 
PR:XCityXXX GBXXX GBПостовХС
В
Л
Х

Цитата:  Снумик
Красиво звучит. Спасибо.

Благодарю за "Спасибо"!


4 апреля 2019
Снумик   
+2 
PR:XCityXXX GBXXX GBПостовХС
В
Л
Х

Красиво звучит. Спасибо.


4 апреля 2019
Bagdee   
+2 
PR:XCityXXX GBXXX GBПостовХС
В
Л
Х

Thank you



 

Please enable Javascript!
Пожалуйста включите Javascript, иначе данный и другие сайты могут работать не корректно! Узнать как включить Javascript можно на Google Support