Категории
Добро пожаловать на музыкальный торрент трекер без регистрации - Sound-Park  ι  Стать пользователем  ι  Войти  ι  Напомнить пароль?

The Cinematic Orchestra - To Believe (Lossless, Hi Res 2019)

Nu jazz  Downtempo  Trip-Hop
 
Дата: 17 марта 2019
Добавил: StasOn11
Просмотров: 1259
  • ИСПОЛНИТЕЛЬ: The Cinematic Orchestra
  • АЛЬБОМ / НАЗВАНИЕ: To Believe
  • ГОД / ДАТА ВЫХОДА: 2019
  • СТРАНА: United Kingdom (London)
  • ТОЧНЫЙ ЖАНР(Ы): Nu-Jazz, Downtempo, Trip-Hop, Electronic
  • ЛЕЙБЛ: Ninja Tune - ZENDNL226
  • ПРОДОЛЖИТЕЛЬНОСТЬ: 00:53:37
  • ФОРМАТ: FLAC, (tracks) 24 bits, 48 KHz
  • КАЧЕСТВО: Lossless
  • Оф сайт: cinematicorchestra.com

  • РЕЙТИНГ: 10 / 4    
  • ГОЛОСОВАТЬ:

  • СКАЧАТЬ: ПРЯМАЯ ССЫЛКА НА ТОРРЕНТ

Описание альбома



01. To Believe (feat. Moses Sumney) (05:28)
02. A Caged Bird / Imitations of Life (feat. Roots Manuva) (06:55)
03. Lessons (09:07)
04. Wait for Now / Leave the World (feat. Tawiah) (07:11)
05. The Workers of Art (06:17)
06. Zero One / This Fantasy (feat. Grey Reverend) (07:04)
07. A Promise (feat. Heidi Vogel) (11:35)

Bleep
Bandcamp

Источник (релизер): Dmitraum

Пятый студийный альбом «To Believe» британской группы The Cinematic Orchestra, играющей смесь электроники и джаза, выпущен 15 марта 2019 года на лейбле Ninja Tun. Записан при участии заметных фигур глобальной соул-джазовой сцены - Мозеса Самни, Roots Manuva и других. Это первый альбом группы за 12 лет после «Ma Fleur», и он будет поддержан туром во втором квартале 2019 года. Удачно названный Кинематографический Оркестр возглавляется композитором, программистом, мульти-инструменталистом Джейсоном Свинскоу, сформировавшим свою первую группу, Crabladder, в 1990 году, будучи еще судентом арт-студии колледжа в Кардиффе. Сплав джаза, хардкора и элементов панка с эксперементальными ритмами, составлявший музыку Crabladder, вдохновил Свинскоу использовать и в будушем преймущества сэмплирования. И к моменту распада Crabladder в середине девяностых, Джейсон профессионально диджеил во многих клубах и на пиратских станциях по всей Великобритании. А еще Джейсон очень любит кино - и музыку свою он сочиняет музыку по принципу киномонтажа, "склеивая" между собой, словно кадры, разнообразные и разноформатные звуки, создавая таким образом новое, неожиданное произведение. Дебютный альбом группы The Cinematic Orchestra, вышедший в 1999 году на родном лейбле Свинскоу "Ninja Tune" cамый авторитетный британский музыкальный журнал "Q Magazine" назвал "революционным и блестящим"...




foobar2000 1.4.3 / Dynamic Range Meter 1.1.1
log date: 2019-03-17 08:50:51

--------------------------------------------------------------------------------
Analyzed: The Cinematic Orchestra / To Believe
--------------------------------------------------------------------------------

DR Peak RMS Duration Track
--------------------------------------------------------------------------------
DR5 -0.30 dB -10.38 dB 5:28 01-To Believe (feat. Moses Sumney)
DR4 -0.14 dB -7.54 dB 6:55 02-A Caged Bird / Imitations of Life (feat. Roots Manuva)
DR5 -0.30 dB -7.73 dB 9:07 03-Lessons
DR4 -0.30 dB -8.73 dB 7:11 04-Wait for Now / Leave the World (feat. Tawiah)
DR9 -0.30 dB -12.67 dB 6:17 05-The Workers of Art
DR7 -0.25 dB -10.62 dB 7:04 06-Zero One / This Fantasy (feat. Grey Reverend)
DR6 -0.30 dB -10.69 dB 11:35 07-A Promise (feat. Heidi Vogel)
--------------------------------------------------------------------------------

Number of tracks: 7
Official DR value: DR6

Samplerate: 48000 Hz
Channels: 2
Bits per sample: 24
Bitrate: 1685 kbps
Codec: FLAC
================================================================================



Комментарии (5)


17 марта 2019
alsoundbel   
0 
PR:XCityXXX GBXXX GBПостовХС
В
Л
Х

muchas gracias


17 марта 2019
StasOn11   
+1 
PR:XCityXXX GBXXX GBПостовХС
В
Л
Х

Цитата:  Nasyroff
СПАСИБО!

Спасибо за "Спасибо"!


17 марта 2019
Nasyroff   
+2 
PR:XCityXXX GBXXX GBПостовХС
В
Л
Х

СПАСИБО!


17 марта 2019
ixtepete2001   
+1 
PR:XCityXXX GBXXX GBПостовХС
В
Л
Х

thank you very much!!!!


17 марта 2019
Bagdee   
+1 
PR:XCityXXX GBXXX GBПостовХС
В
Л
Х

Thank you



 

Please enable Javascript!
Пожалуйста включите Javascript, иначе данный и другие сайты могут работать не корректно! Узнать как включить Javascript можно на Google Support