Категории
Добро пожаловать на музыкальный торрент трекер без регистрации - Sound-Park  ι  Стать пользователем  ι  Войти  ι  Напомнить пароль?

Helloween - My God-Given Right (Deluxe Edition) (Lossless, Hi Res 2015/2018)

Power Metal
 
Дата: 14 марта 2019
Добавил: StasOn11
Просмотров: 2129
  • ИСПОЛНИТЕЛЬ: Helloween
  • АЛЬБОМ / НАЗВАНИЕ: My God-Given Right (Deluxe Edition)
  • ГОД / ДАТА ВЫХОДА: 2015/2018
  • СТРАНА: Hamburg, Germany
  • ТОЧНЫЙ ЖАНР(Ы): Power Metal
  • ЛЕЙБЛ: Nuclear Blast
  • ПРОДОЛЖИТЕЛЬНОСТЬ: 01:12:52
  • ФОРМАТ: FLAC, (tracks) 24 bits, 96 KHz
  • КАЧЕСТВО: Lossless
  • Оф сайт: helloween.org

  • РЕЙТИНГ: 9.13 / 8    
  • ГОЛОСОВАТЬ:

  • СКАЧАТЬ: ПРЯМАЯ ССЫЛКА НА ТОРРЕНТ

Описание альбома



01 – Heroes
02 – Battle’s Won
03 – My God-Given Right
04 – Stay Crazy
05 – Lost In America
06 – Russian Roulé
07 – The Swing Of A Fallen World
08 – Like Everybody Else
09 – Creatures In Heaven
10 – If God Loves Rock ‘n’ Roll
11 – Living On The Edge
12 – Claws
13 – You, Still Of War
14 – I Wish I Were There [Bonus Track]
15 – Wicked Game [Bonus Track]
16 – Free World [Bonus Track]

Qobuz

Источник (релизер): gyji58

Helloween — немецкая пауэр-металлическая группа. Считаются одними из основоположников пауэр-метал. Впервые под этим названием (Helloween) музыканты выступили в 1984 году.

The stalwart German outfit's 16th studio long player, My God-Given Right is a power metal cornucopia spilling over with commercial-grade sweets and cheeses. Bolstered by the dizzying guitar work of Michael Weikath and Sascha Gerstner, the 15-track set has some satisfying moments, especially early on with the one-two punch of "Heroes" and "Battles Won," both of which fit nicely into the Helloween canon where speed metal precision meets rich, melodic choruses tailor-made for unison fist pumping. Vocalist Andi Deris more than holds his own throughout, delivering often inane lyrics like "We wanna stay crazy, fresh as a daisy" with gusto, in a voice that falls somewhere between former Helloween frontman Michael Kiske and head Scorpion Klaus Meine. At 15 slabs of metal, My God-Given Right overstays its welcome a bit, with large portions of its latter half drifting dangerously into filler territory. But stand-out cuts like the soaring "Creatures in Heaven," the menacing "Swing of the Fallen World," and the aforementioned "Heroes" prove that, 30 years into their career, Helloween are still largely unequaled purveyors and unabashed champions of "cheese-tastic" power metal hymns. ~ James Christopher Monger


foobar2000 1.3.16 / Dynamic Range Meter 1.1.1
log date: 2019-02-02 13:58:07

--------------------------------------------------------------------------------
Analyzed: Helloween / My God-Given Right
--------------------------------------------------------------------------------

DR Peak RMS Duration Track
--------------------------------------------------------------------------------
DR7 -0.08 dB -8.11 dB 3:53 01-Heroes
DR7 -0.04 dB -8.35 dB 4:53 02-Battle's Won
DR7 -0.07 dB -8.57 dB 3:30 03-My God-Given Right
DR7 -0.04 dB -8.79 dB 4:04 04-Stay Crazy
DR7 -0.18 dB -8.79 dB 3:36 05-Lost In America
DR8 -0.18 dB -9.05 dB 3:52 06-Russian Roulé
DR7 -0.09 dB -8.80 dB 4:53 07-The Swing Of A Fallen World
DR8 -0.06 dB -10.87 dB 4:04 08-Like Everybody Else
DR8 -0.16 dB -9.52 dB 6:36 09-Creatures In Heaven
DR8 -0.25 dB -9.01 dB 3:21 10-If God Loves Rock 'n' Roll
DR7 -0.10 dB -8.65 dB 5:19 11-Living On The Edge
DR7 -0.09 dB -7.89 dB 5:52 12-Claws
DR7 -0.28 dB -9.49 dB 7:22 13-You, Still Of War
DR7 -0.16 dB -9.05 dB 4:12 14-I Wish I Were There
DR7 -0.17 dB -8.77 dB 3:56 15-Wicked Game
DR7 -0.13 dB -8.33 dB 3:34 16-Free World
--------------------------------------------------------------------------------

Number of tracks: 16
Official DR value: DR7

Samplerate: 96000 Hz
Channels: 2
Bits per sample: 24
Bitrate: 3031 kbps
Codec: FLAC
================================================================================



Комментарии (6)


Вчера в 17:22:20
serguna76   
0 
PR:XCityXXX GBXXX GBПостовХС
В
Л
Х

Thank You!!!


15 марта 2019
StasOn11   
+1 
PR:XCityXXX GBXXX GBПостовХС
В
Л
Х

Цитата:  Radja
СПАСИБО !!!

Благодарю за "Спасибо"!


15 марта 2019
agustsons   
+2 
PR:XCityXXX GBXXX GBПостовХС
В
Л
Х

Thanks!!!


14 марта 2019
belov555   
0 
PR:XCityXXX GBXXX GBПостовХС
В
Л
Х


14 марта 2019
Radja   
+3 
PR:XCityXXX GBXXX GBПостовХС
В
Л
Х

СПАСИБО !!!


14 марта 2019
Bagdee   
0 
PR:XCityXXX GBXXX GBПостовХС
В
Л
Х

Thank you



 

Please enable Javascript!
Пожалуйста включите Javascript, иначе данный и другие сайты могут работать не корректно! Узнать как включить Javascript можно на Google Support