Категории
Добро пожаловать на музыкальный торрент трекер без регистрации - Sound-Park  ι  Стать пользователем  ι  Войти  ι  Напомнить пароль?

Oviedo Filarmonia & Friedrich Haider - Wolf-Ferrari: Il Segreto (Lossless, Hi Res 2019)

Classical
 
Дата: 11 марта 2019
Добавил: StasOn11
Просмотров: 714
  • ИСПОЛНИТЕЛЬ: Oviedo Filarmonia & Friedrich Haider
  • АЛЬБОМ / НАЗВАНИЕ: Wolf-Ferrari: Il Segreto
  • ГОД / ДАТА ВЫХОДА: 2019
  • ТОЧНЫЙ ЖАНР(Ы): Classical
  • ЛЕЙБЛ: Naxos - 8660385
  • ПРОДОЛЖИТЕЛЬНОСТЬ: 01:06:18
  • ФОРМАТ: FLAC, (tracks) 24 bits, 44,1 KHz
  • КАЧЕСТВО: Lossless

  • РЕЙТИНГ: 10 / 3    
  • ГОЛОСОВАТЬ:

  • СКАЧАТЬ: ПРЯМАЯ ССЫЛКА НА ТОРРЕНТ

Описание альбома



01-14. Wolf-Ferrari: Il segreto di Susanna 44:03
Àngel Òdena (baritone), Judith Howarth (soprano)

15-18. Wolf-Ferrari: Serenade for Strings 22:14

Prestomusic

Источник (релизер): ipokemongo

Ermanno Wolf-Ferrari’s prolific early career succeeded in launching a fundamental renewal of opera buffa, offering a clear alternative to the dominance of Wagner and Puccini, while his Venetian upbringing inspired a songlike and lyrical style. With its subtle orchestration and vivacious Mediterranean charm, Il segreto di Susanna (’Susanna’s Secret’) is a magical comic opera that became a box office success in its day and remains one of Wolf-Ferrari’s most frequently performed works. The early Serenade reveals his innate gift for inspired melody, expressing both carefree bliss and bitter melancholy.

Oviedo Filarmonía
Friedrich Haider
Recording Venue: Auditorio Principe Félipe, Oviedo, Spain

foobar2000 1.4.2 / Dynamic Range Meter 1.1.1
log date: 2019-03-10 13:13:57

--------------------------------------------------------------------------------
Analyzed: Judith Howarth, Àngel Òdena, Oviedo Filarmonía & Friedrich Haider / Wolf-Ferrari: Il Segreto di Susanna - Serenade for Strings in E-Flat Major
--------------------------------------------------------------------------------

DR Peak RMS Duration Track
--------------------------------------------------------------------------------
DR13 -2.17 dB -21.75 dB 2:45 01-Il Segreto di Susanna: Ouvertüre
DR17 -2.26 dB -25.47 dB 1:32 02-Il Segreto di Susanna: Mantiglia grigia... Cappellino rosa
DR16 -2.76 dB -24.55 dB 2:45 03-Il Segreto di Susanna: Ben lo conosco l'odor molesto
DR14 -6.01 dB -29.74 dB 1:12 04-Il Segreto di Susanna: Evitiam che un domestico
DR14 -2.74 dB -25.14 dB 4:42 05-Il Segreto di Susanna: Guardala! Con quell'aria ingenua e franca
DR14 -2.56 dB -22.53 dB 3:36 06-Il Segreto di Susanna: Dal suo gesticolare - Il dolce idillo
DR14 -4.27 dB -25.74 dB 1:32 07-Il Segreto di Susanna: Ah! L'odore fatal sin nella veste!
DR12 -1.22 dB -18.15 dB 2:57 08-Il Segreto di Susanna: Ah! Scellerata!
DR14 -7.14 dB -29.16 dB 3:32 09-Il Segreto di Susanna: Intermezzo - Coglierla debbo...
DR14 -4.19 dB -25.85 dB 5:11 10-Il Segreto di Susanna: Via, così non mi lasciate
DR13 -7.03 dB -28.13 dB 1:43 11-Il Segreto di Susanna: Bravo Sante, chiudiam tutte le porte
DR13 -0.10 dB -20.34 dB 4:35 12-Il Segreto di Susanna: Chi è là? - Son io Susanna
DR14 -2.93 dB -23.21 dB 4:45 13-Il Segreto di Susanna: Oh gioia la nube leggera
DR14 -1.79 dB -22.36 dB 3:22 14-Il Segreto di Susanna: Ti colgo questa volta!
DR14 -8.57 dB -27.49 dB 7:36 15-Serenade for Strings in E-Flat Major: I. Allegro
DR13 -10.89 dB -29.06 dB 6:52 16-Serenade for Strings in E-Flat Major: II. Andante
DR13 -9.68 dB -29.21 dB 2:34 17-Serenade for Strings in E-Flat Major: III. Scherzo. Presto
DR13 -10.43 dB -28.69 dB 5:14 18-Serenade for Strings in E-Flat Major: IV. Finale. Presto
--------------------------------------------------------------------------------

Number of tracks: 18
Official DR value: DR14

Samplerate: 44100 Hz
Channels: 2
Bits per sample: 24
Bitrate: 1231 kbps
Codec: FLAC
================================================================================



Комментарии (4)


12 марта 2019
asimov12   
0 
PR:XCityXXX GBXXX GBПостовХС
В
Л
Х

MUCHISIMAS GRACIAS.


12 марта 2019
StasOn11   
0 
PR:XCityXXX GBXXX GBПостовХС
В
Л
Х

Цитата:  слэйк
Благодарю Стас.!!!

Спасибо за "Благодарность"!


11 марта 2019
слэйк   
+2 
PR:XCityXXX GBXXX GBПостовХС
В
Л
Х

Благодарю Стас.!!!


11 марта 2019
Bagdee   
+1 
PR:XCityXXX GBXXX GBПостовХС
В
Л
Х

Thank you



 

Please enable Javascript!
Пожалуйста включите Javascript, иначе данный и другие сайты могут работать не корректно! Узнать как включить Javascript можно на Google Support