Категории
Добро пожаловать на музыкальный торрент трекер без регистрации - Sound-Park  ι  Стать пользователем  ι  Войти  ι  Напомнить пароль?

Rob Dougan - The Life of the World to Come (Lossless, Hi Res 2019)

Electronic Classical
 
Дата: 11 марта 2019
Добавил: StasOn11
Просмотров: 1190
  • ИСПОЛНИТЕЛЬ: Rob Dougan
  • АЛЬБОМ / НАЗВАНИЕ: The Life of the World to Come
  • ГОД / ДАТА ВЫХОДА: 2019
  • СТРАНА: United Kingdom
  • ТОЧНЫЙ ЖАНР(Ы): Orchestral, Electronic, Electronic Classical
  • ЛЕЙБЛ: Self-Released
  • ПРОДОЛЖИТЕЛЬНОСТЬ: 00:46:36
  • ФОРМАТ: FLAC, (tracks) 24 bits, 44,1 KHz
  • КАЧЕСТВО: Lossless

  • РЕЙТИНГ: 10 / 5    
  • ГОЛОСОВАТЬ:

  • СКАЧАТЬ: ПРЯМАЯ ССЫЛКА НА ТОРРЕНТ

Описание альбома



01 - The Life of the World to Come - 6:32
02 - Beautiful Things - 4:56
03 - Quasimodo's Dream - 4:46
04 - And Then I Think of You - 7:04
05 - The Life of the World to Come (Instrumental) - 6:32
06 - Beautiful Things (Instrumental) - 4:57
07 - Quasimodo's Dream (Instrumental) - 4:46
08 - And Then I Think of You (Instrumental) - 7:04

Robdougan

Источник (релизер): Где варенец о.О


foobar2000 1.4.1 / Замер динамического диапазона (DR) 1.1.1
Дата отчёта: 2019-03-10 00:59:47

--------------------------------------------------------------------------------
Анализ: Rob Dougan / The Life of the World to Come
--------------------------------------------------------------------------------

DR Пики RMS Продолжительность трека
--------------------------------------------------------------------------------
DR6 -0.08 дБ -7.83 дБ 6:32 01-The Life of the World to Come
DR7 -0.12 дБ -10.73 дБ 4:56 02-Beautiful Things
DR6 -0.01 дБ -9.81 дБ 4:46 03-Quasimodo's Dream
DR7 -0.02 дБ -9.64 дБ 7:04 04-And Then I Think of You
DR6 -0.61 дБ -8.73 дБ 6:32 05-The Life of the World to Come (Instrumental)
DR6 -0.12 дБ -10.07 дБ 4:57 06-Beautiful Things (Instrumental)
DR6 -0.03 дБ -9.99 дБ 4:46 07-Quasimodo's Dream (Instrumental)
DR7 -0.05 дБ -10.44 дБ 7:04 08-And Then I Think of You (Instrumental)
--------------------------------------------------------------------------------

Количество треков: 8
Реальные значения DR: DR6

Частота: 44100 Гц
Каналов: 2
Разрядность: 24
Битрейт: 1466 кбит/с
Кодек: FLAC
================================================================================



Комментарии (2)


11 марта 2019
Handtodeath   
+1 
PR:XCityXXX GBXXX GBПостовХС
В
Л
Х

Very good, Thank you


11 марта 2019
Bagdee   
+1 
PR:XCityXXX GBXXX GBПостовХС
В
Л
Х

Thank you



 

Please enable Javascript!
Пожалуйста включите Javascript, иначе данный и другие сайты могут работать не корректно! Узнать как включить Javascript можно на Google Support