Категории
Добро пожаловать на музыкальный торрент трекер без регистрации - Sound-Park  ι  Стать пользователем  ι  Войти  ι  Напомнить пароль?

Omnimar - The Road (Single) (Lossless, Hi Res 2019)

Darkwave  Synthpop
 
Дата: 11 марта 2019
Добавил: StasOn11
Просмотров: 1500
  • ИСПОЛНИТЕЛЬ: Omnimar
  • АЛЬБОМ / НАЗВАНИЕ: The Road (Single)
  • ГОД / ДАТА ВЫХОДА: 2019
  • СТРАНА: Россия (Moscow, Russia)
  • ТОЧНЫЙ ЖАНР(Ы): Darkwave, SynthPop
  • ЛЕЙБЛ: darkTunes Music Group
  • ПРОДОЛЖИТЕЛЬНОСТЬ: 00:21:05
  • ФОРМАТ: FLAC, (tracks) 24 bits, 48 KHz
  • КАЧЕСТВО: Lossless
  • Оф сайт: darktunes.com/en

  • РЕЙТИНГ: 10 / 13    
  • ГОЛОСОВАТЬ:

  • СКАЧАТЬ: ПРЯМАЯ ССЫЛКА НА ТОРРЕНТ
  • СИДЫ:

Описание альбома



01 The Road [5:25]
02 The Road (Pray Project remix) [4:55]
03 The Road (Setalight12 remix) [5:19]
04 The Road (Instrumental) [5:27]

Bandcamp
Facebook

Источник (релизер): feurer


General
Complete name : F:MusicOMNIMAR2019.03.08 - The RoadOMNIMAR - The Road - 01 The Road.flac
Format : FLAC
Format/Info : Free Lossless Audio Codec
File size : 67.9 MiB
Duration : 5 min 25 s
Overall bit rate mode : Variable
Overall bit rate : 1 753 kb/s
Album : The Road
Album/Performer : OMNIMAR
Track name : The Road
Track name/Position : 1
Performer : OMNIMAR
Recorded date : 2019
Cover : Yes
Cover type : Cover (front)
Cover MIME : image/jpeg
Comment : Visit http://omnimar.bandcamp.com
UNSYNCEDLYRICS : I walk this road alone / I fear to meet you once / if I won’t see you now / this way won’t bring me far / I walk this road alone / unbreakable / another black hole / is just a stumble, not a fall / / when I stumble hold me / starring in my eyes / in my fragile world with my creeping lies / I’m running on flat tires / when I stumble sober me / holding me tight / course In my fragile world / with my creeping lies / I’m running on flat tires / / I walk this road alone / I walk this road alone / let us doubt, doubt together / if we should, if we should ever / ever come back / / I’ve been running for too long / can hardly catch my breath / till my feet touch this ground / my drive never ends / there on the other side / I feel your single soul / that’s where I realize / I’m back to where I started from / / when I stumble hold me / starring in my eyes / in my fragile world with my creeping lies / I’m running on flat tires / when I stumble sober me / holding me tight / course In my fragile world / with my creeping lies / I’m running on flat tires / / / I walk this road alone / I walk this road alone / let us doubt, doubt together / if we should, if we should ever / ever come back

Audio
Format : FLAC
Format/Info : Free Lossless Audio Codec
Duration : 5 min 25 s
Bit rate mode : Variable
Bit rate : 1 751 kb/s
Channel(s) : 2 channels
Channel layout : L R
Sampling rate : 48.0 kHz
Bit depth : 24 bits
Compression mode : Lossless
Stream size : 67.9 MiB (100%)
Writing library : libFLAC 1.3.0 (UTC 2013-05-26)
General
Complete name : F:MusicOMNIMAR2019.03.08 - The RoadOMNIMAR - The Road - 02 The Road (Pray Project remix).flac
Format : FLAC
Format/Info : Free Lossless Audio Codec
File size : 37.7 MiB
Duration : 4 min 54 s
Overall bit rate mode : Variable
Overall bit rate : 1 074 kb/s
Album : The Road
Album/Performer : OMNIMAR
Track name : The Road (Pray Project remix)
Track name/Position : 2
Performer : OMNIMAR
Recorded date : 2019
Cover : Yes
Cover type : Cover (front)
Cover MIME : image/jpeg
Comment : Visit http://omnimar.bandcamp.com

Audio
Format : FLAC
Format/Info : Free Lossless Audio Codec
Duration : 4 min 54 s
Bit rate mode : Variable
Bit rate : 1 072 kb/s
Channel(s) : 2 channels
Channel layout : L R
Sampling rate : 48.0 kHz
Bit depth : 16 bits
Compression mode : Lossless
Stream size : 37.7 MiB (100%)
Writing library : libFLAC 1.3.0 (UTC 2013-05-26)
General
Complete name : F:MusicOMNIMAR2019.03.08 - The RoadOMNIMAR - The Road - 03 The Road (Setalight12 remix).flac
Format : FLAC
Format/Info : Free Lossless Audio Codec
File size : 70.3 MiB
Duration : 5 min 19 s
Overall bit rate mode : Variable
Overall bit rate : 1 848 kb/s
Album : The Road
Album/Performer : OMNIMAR
Track name : The Road (Setalight12 remix)
Track name/Position : 3
Performer : OMNIMAR
Recorded date : 2019
Cover : Yes
Cover type : Cover (front)
Cover MIME : image/jpeg
Comment : Visit http://omnimar.bandcamp.com

Audio
Format : FLAC
Format/Info : Free Lossless Audio Codec
Duration : 5 min 19 s
Bit rate mode : Variable
Bit rate : 1 846 kb/s
Channel(s) : 2 channels
Channel layout : L R
Sampling rate : 48.0 kHz
Bit depth : 24 bits
Compression mode : Lossless
Stream size : 70.2 MiB (100%)
Writing library : libFLAC 1.3.0 (UTC 2013-05-26)
General
Complete name : F:MusicOMNIMAR2019.03.08 - The RoadOMNIMAR - The Road - 04 The Road (Instrumental).flac
Format : FLAC
Format/Info : Free Lossless Audio Codec
File size : 66.3 MiB
Duration : 5 min 26 s
Overall bit rate mode : Variable
Overall bit rate : 1 703 kb/s
Album : The Road
Album/Performer : OMNIMAR
Track name : The Road (Instrumental)
Track name/Position : 4
Performer : OMNIMAR
Recorded date : 2019
Cover : Yes
Cover type : Cover (front)
Cover MIME : image/jpeg
Comment : Visit http://omnimar.bandcamp.com

Audio
Format : FLAC
Format/Info : Free Lossless Audio Codec
Duration : 5 min 26 s
Bit rate mode : Variable
Bit rate : 1 702 kb/s
Channel(s) : 2 channels
Channel layout : L R
Sampling rate : 48.0 kHz
Bit depth : 24 bits
Compression mode : Lossless
Stream size : 66.2 MiB (100%)
Writing library : libFLAC 1.3.0 (UTC 2013-05-26)

Разрядность
01 The Road - 24/48
02 The Road (Pray Project remix) - 16/48
03 The Road (Setalight12 remix) - 24/48
04 The Road (Instrumental) - 24/48



Комментарии (7)


15 марта 2019
StasOn11   
+1 
PR:XCityXXX GBXXX GBПостовХС
В
Л
Х

Всем!!! Спасибо за "Спасибо"!


15 марта 2019
Nasyroff   
+2 
PR:XCityXXX GBXXX GBПостовХС
В
Л
Х

СПАСИБО!


13 марта 2019
kbp   
+2 
PR:XCityXXX GBXXX GBПостовХС
В
Л
Х

Спасибо!


13 марта 2019
FETR75   
0 
PR:XCityXXX GBXXX GBПостовХС
В
Л
Х

Super!


13 марта 2019
alexblog   
0 
PR:XCityXXX GBXXX GBПостовХС
В
Л
Х

Thank you


12 марта 2019
Dmitriy74   
+2 
PR:XCityXXX GBXXX GBПостовХС
В
Л
Х

Спасибо


11 марта 2019
Bagdee   
+1 
PR:XCityXXX GBXXX GBПостовХС
В
Л
Х

Thank you



 
Please enable Javascript!
Пожалуйста включите Javascript, иначе данный и другие сайты могут работать не корректно! Узнать как включить Javascript можно на Google Support