Категории
Добро пожаловать на музыкальный торрент трекер без регистрации - Sound-Park  ι  Стать пользователем  ι  Войти  ι  Напомнить пароль?

Jacob Needham & The Blue Trees - Procrastinated Memoirs (Lossless, Hi Res 2018)

Country  Other Rock
 
Дата: 11 марта 2019
Добавил: StasOn11
Просмотров: 901
  • ИСПОЛНИТЕЛЬ: Jacob Needham & The Blue Trees
  • АЛЬБОМ / НАЗВАНИЕ: Procrastinated Memoirs
  • ГОД / ДАТА ВЫХОДА: 2018
  • СТРАНА: Birmingham, Alabama, U.S.
  • ТОЧНЫЙ ЖАНР(Ы): Southern Rock, Americana
  • ЛЕЙБЛ: © (C) 2018 Spectra Music Group
  • ПРОДОЛЖИТЕЛЬНОСТЬ: 00:42:15
  • ФОРМАТ: FLAC, (tracks) 24 bits, 48 KHz
  • КАЧЕСТВО: Lossless

  • РЕЙТИНГ: 9.8 / 10    
  • ГОЛОСОВАТЬ:

  • СКАЧАТЬ: ПРЯМАЯ ССЫЛКА НА ТОРРЕНТ

Описание альбома



01 – Traffic
02 – Therapist
03 – Vanilla Salt Black Voodoo
04 – Next Words You Say
05 – Avalanche
06 – Alabama Baby
07 – Radio
08 – Rhythm and Brews
09 – Just Dropped In
10 – King Without A Crown
11 – Ol’ Bones
12 – Say Your Prayers

Qobuz
Facebook

Источник (релизер): gyji58


foobar2000 1.3.3 (cdpos.biz) / Dynamic Range Meter 1.1.1
log date: 2019-03-10 16:09:50

--------------------------------------------------------------------------------
Analyzed: Jacob Needham & The Blue Trees / Procrastinated Memoirs
--------------------------------------------------------------------------------

DR Peak RMS Duration Track
--------------------------------------------------------------------------------
DR9 -0.21 dB -10.83 dB 3:53 01-Traffic
DR10 -0.21 dB -11.60 dB 3:57 02-Therapist
DR9 -0.21 dB -10.94 dB 3:35 03-Vanilla Salt Black Voodoo
DR10 -0.21 dB -11.34 dB 3:14 04-Next Words You Say
DR10 -0.21 dB -12.13 dB 3:21 05-Avalanche
DR11 -0.21 dB -13.40 dB 3:03 06-Alabama Baby
DR10 -0.21 dB -11.26 dB 3:57 07-Radio
DR13 -0.21 dB -14.38 dB 3:48 08-Rhythm and Brews
DR12 -0.21 dB -13.09 dB 2:53 09-Just Dropped In
DR10 -0.21 dB -13.83 dB 3:48 10-King Without A Crown
DR10 -0.21 dB -11.07 dB 3:03 11-Ol' Bones
DR9 -0.21 dB -10.93 dB 3:52 12-Say Your Prayers
--------------------------------------------------------------------------------

Number of tracks: 12
Official DR value: DR10

Samplerate: 48000 Hz
Channels: 2
Bits per sample: 24
Bitrate: 1754 kbps
Codec: FLAC
================================================================================



Комментарии (4)


13 марта 2019
aleox16   
0 
PR:XCityXXX GBXXX GBПостовХС
В
Л
Х

gracias


13 марта 2019
FETR75   
0 
PR:XCityXXX GBXXX GBПостовХС
В
Л
Х

Super!


11 марта 2019
Phantastych   
0 
PR:XCityXXX GBXXX GBПостовХС
В
Л
Х

Nice beards


11 марта 2019
Bagdee   
+1 
PR:XCityXXX GBXXX GBПостовХС
В
Л
Х

Thank you



 

Please enable Javascript!
Пожалуйста включите Javascript, иначе данный и другие сайты могут работать не корректно! Узнать как включить Javascript можно на Google Support