Категории
Добро пожаловать на музыкальный торрент трекер без регистрации - Sound-Park  ι  Стать пользователем  ι  Войти  ι  Напомнить пароль?

Saba Alizadeh - Scattered Memories (Lossless, Hi Res 2019)

Ambient  Acoustic  Electronic Classical
 
Дата: 8 марта 2019
Добавил: StasOn11
Просмотров: 3041
  • ИСПОЛНИТЕЛЬ: Saba Alizadeh
  • АЛЬБОМ / НАЗВАНИЕ: Scattered Memories
  • ГОД / ДАТА ВЫХОДА: 2019
  • СТРАНА: Iran (Tehran)
  • ТОЧНЫЙ ЖАНР(Ы): Ambient, Electroacoustic, Persian Classical Music
  • ЛЕЙБЛ: Karlrecords (Germany) - KR 060
  • ПРОДОЛЖИТЕЛЬНОСТЬ: 00:44:10
  • ФОРМАТ: FLAC, (tracks) 24 bits, 44,1 KHz
  • КАЧЕСТВО: Lossless

  • РЕЙТИНГ: 9.36 / 14    
  • ГОЛОСОВАТЬ:

  • СКАЧАТЬ: ПРЯМАЯ ССЫЛКА НА ТОРРЕНТ
  • СИДЫ:

Описание альбома



01. Blood City [04:20]
02. Dream [03:10]
03. Colors Wove Me in Tehran [05:45]
04. Would You Remember Me [05:13]
05. Elegy for Water [05:52]
06. Scattered Memories [07:12]
07. Ladan Dead End (Kamancheh Version) [02:50]
08. Fever [03:20]
09. Greetings to Earthfire [03:19]
10. Fluid [03:11]

Вandcamp

Источник (релизер): Strelnikoff Vladimir


foobar2000 1.3.9 / Dynamic Range Meter 1.1.1
log date: 2019-03-07 00:39:24

--------------------------------------------------------------------------------
Analyzed: Saba Alizadeh / Scattered Memories
--------------------------------------------------------------------------------

DR Peak RMS Duration Track
--------------------------------------------------------------------------------
DR10 -0.65 dB -14.45 dB 4:20 01-Blood City
DR12 -0.66 dB -16.84 dB 3:10 02-Dream
DR9 -0.60 dB -13.09 dB 5:45 03-Colors Wove Me in Tehran
DR10 -0.50 dB -14.64 dB 5:13 04-Would You Remember Me
DR9 -0.56 dB -11.16 dB 5:52 05-Elegy for Water
DR9 -0.50 dB -12.49 dB 7:12 06-Scattered Memories
DR11 -0.19 dB -13.65 dB 2:50 07-Ladan Dead End (Kamancheh Version)
DR17 -0.50 dB -25.29 dB 3:20 08-Fever
DR9 -1.14 dB -14.22 dB 3:19 09-Greetings to Earthfire
DR13 -0.57 dB -17.02 dB 3:10 10-Fluid
--------------------------------------------------------------------------------

Number of tracks: 10
Official DR value: DR11

Samplerate: 44100 Hz
Channels: 2
Bits per sample: 24
Bitrate: 1297 kbps
Codec: FLAC
================================================================================



Комментарии (10)


8 апреля 2019
DjHellX   
0 
PR:XCityXXX GBXXX GBПостовХС
В
Л
Х

بسیار عالی و حرفه ای
لطفا دوستانی که از موسیقی چیزی نمیدونن نظر ندن


19 марта 2019
dires   
0 
PR:XCityXXX GBXXX GBПостовХС
В
Л
Х

من به شما عزیزان گوش میکنم و دانلود نمیکنم.


12 марта 2019
beanl3oy   
0 
PR:XCityXXX GBXXX GBПостовХС
В
Л
Х

هرچقدر هم که این موسیقی به نظر شما بد باشه روش کار شده و احساسات یه فرد توشه و حالا که آلبوم شده و اینجاست و تو اومدی بهش گوش دادی پس کص نگو

البته من دوس داشتم مدلشو


10 марта 2019
amin70223   
0 
PR:XCityXXX GBXXX GBПостовХС
В
Л
Х

bull shit


9 марта 2019
kurtkobeyn   
0 
PR:XCityXXX GBXXX GBПостовХС
В
Л
Х

К сожалению не зацепило, по-моему, ничего нового...5-


9 марта 2019
djgibson   
0 
PR:XCityXXX GBXXX GBПостовХС
В
Л
Х

واقعا کس شعر بود ، دانلود نکنید اصلا آبرو هرچی موسیقیدان ایرانی رو میبرن اینا


9 марта 2019
fra0oxf   
0 
PR:XCityXXX GBXXX GBПостовХС
В
Л
Х

Perfect!!! Merci


9 марта 2019
zoozooloo   
0 
PR:XCityXXX GBXXX GBПостовХС
В
Л
Х

tHANK YOU THERE ARE PRECIOUS MUSICS IN PERSIAN ARTISTS' CATALOGS - PLEASE MORE


8 марта 2019
Bagdee   
0 
PR:XCityXXX GBXXX GBПостовХС
В
Л
Х

Thank you


8 марта 2019
Regl75   
0 
PR:XCityXXX GBXXX GBПостовХС
В
Л
Х

Не плохо! Спасибо!



 

Please enable Javascript!
Пожалуйста включите Javascript, иначе данный и другие сайты могут работать не корректно! Узнать как включить Javascript можно на Google Support