Категории
Добро пожаловать на музыкальный торрент трекер без регистрации - Sound-Park  ι  Стать пользователем  ι  Войти  ι  Напомнить пароль?

Dominic Miller - Absinthe (Lossless, Hi Res 2019)

Jazz
 
Дата: 4 марта 2019
Добавил: StasOn11
Просмотров: 1153
  • ИСПОЛНИТЕЛЬ: Dominic Miller
  • АЛЬБОМ / НАЗВАНИЕ: Absinthe
  • ГОД / ДАТА ВЫХОДА: 2019
  • СТРАНА: Argentina / USA
  • ТОЧНЫЙ ЖАНР(Ы): ECM Sound, Modern Creative, Chamber Jazz
  • ЛЕЙБЛ: ECM Records - ECM 2614
  • ПРОДОЛЖИТЕЛЬНОСТЬ: 00:41:49
  • ФОРМАТ: FLAC, (tracks) 24 bits, 88,2 KHz
  • КАЧЕСТВО: Lossless
  • Оф сайт: dominicmiller.com

  • РЕЙТИНГ: 9.8 / 5    
  • ГОЛОСОВАТЬ:

  • СКАЧАТЬ: ПРЯМАЯ ССЫЛКА НА ТОРРЕНТ

Описание альбома



1. Absinthe (05:28)
2. Mixed Blessing (04:47)
3. Verveine (01:45)
4. La Petite Reine (02:13)
5. Christiania (04:29)
6. Étude (05:42)
7. Bicycle (03:51)
8. Ombu (03:40)
9. Ténèbres (04:22)
10. Saint Vincent (05:27)

HDtracks

Источник (релизер): domednest

Доминик Миллер, гитарист аргентинского происхождения, получил известность благодаря многолетнему сотрудничеству со Стингом.

Свой первый сольный альбом на ECM Records он записал в 2017, но если Silent Light составляли пьесы для гитары-соло и дуэта с ударными, то для записи своего второго ECM-диска Доминик собрал замечательный квинтет. «Абсент», между тем, также получился очень лиричный, окрашенный особой атмосферой.

«Первое, что пришло ко мне до того, как я написал какую-либо мелодию, это название. Живя на юге Франции, я очарован импрессионизмом. Острые легкие и колдовские мистрали в сочетании с крепким алкоголем и интенсивным похмельем, должно быть, довели некоторых из этих художников до безумия. Небеса зеленые, лица синие, перспектива искажена».


Dominic Miller – nylon & steel string acoustic guitar
Santiago Arias – bandoneon
Mike Lindup – keyboards
Nicolas Fiszman – bass
Manu Katché – drums


foobar2000 1.4 / Dynamic Range Meter 1.1.1
log date: 2019-03-03 20:48:53

--------------------------------------------------------------------------------
Analyzed: Dominic Miller / Absinthe
--------------------------------------------------------------------------------

DR Peak RMS Duration Track
--------------------------------------------------------------------------------
DR15 -0.52 dB -19.80 dB 5:28 01-Absinthe
DR11 -2.73 dB -19.34 dB 4:48 02-Mixed Blessing
DR12 -1.53 dB -17.52 dB 1:45 03-Verveine
DR11 -7.53 dB -22.10 dB 2:14 04-La Petite Reine
DR14 -0.56 dB -20.12 dB 4:30 05-Christiania
DR13 -0.56 dB -17.20 dB 5:42 06-Etude
DR13 -1.06 dB -17.22 dB 3:52 07-Bicycle
DR14 -0.54 dB -17.97 dB 3:41 08-Ombu
DR15 -1.10 dB -20.67 dB 4:23 09-Tenebres
DR13 -0.55 dB -18.22 dB 5:27 10-Saint Vincent
--------------------------------------------------------------------------------

Number of tracks: 10
Official DR value: DR13

Samplerate: 88200 Hz
Channels: 2
Bits per sample: 24
Bitrate: 2639 kbps
Codec: FLAC
================================================================================



Комментарии (4)


9 марта 2019
RILETA   
0 
PR:XCityXXX GBXXX GBПостовХС
В
Л
Х

MUCHAS ZENKIUSSSSS


7 марта 2019
aleox16   
0 
PR:XCityXXX GBXXX GBПостовХС
В
Л
Х

gracias


5 марта 2019
Bagdee   
0 
PR:XCityXXX GBXXX GBПостовХС
В
Л
Х

Thank you


4 марта 2019
Снумик   
0 
PR:XCityXXX GBXXX GBПостовХС
В
Л
Х

Спасибо.



 

Please enable Javascript!
Пожалуйста включите Javascript, иначе данный и другие сайты могут работать не корректно! Узнать как включить Javascript можно на Google Support