Категории
Добро пожаловать на музыкальный торрент трекер без регистрации - Sound-Park  ι  Стать пользователем  ι  Войти  ι  Напомнить пароль?

Branford Marsalis Quartet - The Secret Between the Shadow and the Soul (Lossless, Hi Res 2019)

Jazz
 
Дата: 4 марта 2019
Добавил: StasOn11
Просмотров: 1594
  • ИСПОЛНИТЕЛЬ: Branford Marsalis Quartet
  • АЛЬБОМ / НАЗВАНИЕ: The Secret Between the Shadow and the Soul
  • ГОД / ДАТА ВЫХОДА: 2019
  • СТРАНА: United States
  • ТОЧНЫЙ ЖАНР(Ы): Jazz, Contemporary Jazz
  • ЛЕЙБЛ: Okeh / Sony Masterworks
  • ПРОДОЛЖИТЕЛЬНОСТЬ: 01:02:17
  • ФОРМАТ: FLAC, (tracks) 24 bits, 96 KHz
  • КАЧЕСТВО: Lossless

  • РЕЙТИНГ: 10 / 3    
  • ГОЛОСОВАТЬ:

  • СКАЧАТЬ: ПРЯМАЯ ССЫЛКА НА ТОРРЕНТ
  • СИДЫ:

Описание альбома



01. Dance of the Evil Toys (08:23)
02. Conversation Among the Ruins (08:46)
03. Snake Hip Waltz (05:52)
04. Cianna (07:32)
05. Nilaste (10:15)
06. Life Filtering from the Water Flowers (09:00)
07. The Windup (12:30)

Prestomusic

Источник (релизер): Stephenten

Released on the OKEH label, via Sony Classical - After the success of their previous album, 'Upward Spiral', the internationally acclaimed Branford Marsalis Quartet returns with their sensational new album 'The Secret Between the Shadow and the Soul'. The Branford Marsalis Quartet has been one of the most prominent jazz ensembles over the past three decades. As usual, the album features compositions from the veteran members of the quartet. The quartet will be performing in London at the Barbican on 1st March 2018.

Branford Marsalis, saxophone
Joey Calderazzo, piano
Eric Revis, double bass
Justin Faulkner, drums


foobar2000 1.4 / Dynamic Range Meter 1.1.1
log date: 2019-03-04 08:00:30

--------------------------------------------------------------------------------
Analyzed: Branford Marsalis Quartet/Rob 'Wacko' Hunter/Rob 'Wacko' Hunter/Greg Calbi/Justin Faulkner/Branford Marsalis/Eric Revis/Eric Revis/Branford Marsalis/Joey Calderazzo / The Secret Between the Shadow and the Soul (1-2)
Branford Marsalis Quartet/Rob 'Wacko' Hunter/Rob 'Wacko' Hunter/Greg Calbi/Justin Faulkner/Branford Marsalis/Joey Calderazzo/Joey Calderazzo/Branford Marsalis/Eric Revis / The Secret Between the Shadow and the Soul (3-4)
Branford Marsalis Quartet/Rob 'Wacko' Hunter/Rob 'Wacko' Hunter/Greg Calbi/Justin Faulkner/Joey Calderazzo/Andrew Hill/Branford Marsalis/Branford Marsalis/Eric Revis / The Secret Between the Shadow and the Soul (5)
Branford Marsalis Quartet/Rob 'Wacko' Hunter/Rob 'Wacko' Hunter/Greg Calbi/Justin Faulkner/Joey Calderazzo/Branford Marsalis/Branford Marsalis/Branford Marsalis/Eric Revis / The Secret Between the Shadow and the Soul (6)
Branford Marsalis Quartet/Rob 'Wacko' Hunter/Rob 'Wacko' Hunter/Greg Calbi/Justin Faulkner/Joey Calderazzo/Keith Jarrett/Branford Marsalis/Branford Marsalis/Eric Revis / The Secret Between the Shadow and the Soul (7)
--------------------------------------------------------------------------------

DR Peak RMS Duration Track
--------------------------------------------------------------------------------
DR7 -0.88 dB -10.76 dB 8:23 01-Dance of the Evil Toys
DR6 -0.88 dB -11.11 dB 10:16 05-Nilaste
DR8 -0.88 dB -12.89 dB 8:46 02-Conversation Among the Ruins
DR8 -0.88 dB -11.13 dB 7:32 04-Cianna
DR7 -0.88 dB -9.91 dB 5:52 03-Snake Hip Waltz
DR8 -0.88 dB -13.11 dB 9:00 06-Life Filtering from the Water Flowers
DR6 -1.08 dB -8.95 dB 12:31 07-The Windup
--------------------------------------------------------------------------------

Number of tracks: 7
Official DR value: DR7
Samplerate: 96000 Hz
Channels: 2
Bits per sample: 24
Bitrate: 3274 kbps
Codec: FLAC
================================================================================



Комментарии (3)


5 марта 2019
aouema   
0 
PR:XCityXXX GBXXX GBПостовХС
В
Л
Х

Grazie molte


5 марта 2019
Bagdee   
0 
PR:XCityXXX GBXXX GBПостовХС
В
Л
Х

Thank you


4 марта 2019
petrosa   
0 
PR:XCityXXX GBXXX GBПостовХС
В
Л
Х

thanks



 
Please enable Javascript!
Пожалуйста включите Javascript, иначе данный и другие сайты могут работать не корректно! Узнать как включить Javascript можно на Google Support