Категории
Добро пожаловать на музыкальный торрент трекер без регистрации - Sound-Park  ι  Стать пользователем  ι  Войти  ι  Напомнить пароль?

Soft Machine - Hidden Details (Lossless, Hi Res 2018)

Progressive Rock  Psychedelic Rock  Jazz  Other Rock
 
Дата: 9 февраля 2019
Добавил: StasOn11
Просмотров: 1766
  • ИСПОЛНИТЕЛЬ: Soft Machine
  • АЛЬБОМ / НАЗВАНИЕ: Hidden Details
  • ГОД / ДАТА ВЫХОДА: 2018
  • СТРАНА: United Kingdom (Canterbury)
  • ТОЧНЫЙ ЖАНР(Ы): Progressive Rock, Psychedelic,Jazz Rock
  • ЛЕЙБЛ: MoonJune Records
  • ПРОДОЛЖИТЕЛЬНОСТЬ: 01:03:43
  • ФОРМАТ: FLAC, (tracks) 24 bits, 44,1 KHz
  • КАЧЕСТВО: Lossless

  • РЕЙТИНГ: 9.86 / 7    
  • ГОЛОСОВАТЬ:

  • СКАЧАТЬ: ПРЯМАЯ ССЫЛКА НА ТОРРЕНТ

Описание альбома



01. Hidden Details [00:07:36]
02. The Man Who Waved At Trains [00:05:00]
03. Ground Lift [00:05:21]
04. Heart Off Guard [00:02:29]
05. Broken Hill [00:03:49]
06. Flight Of The Jett [00:02:12]
07. One Glove [00:04:30]
08. Out Bloody Intro [00:02:41]
09. Out Bloody Rageous, Part 1 [00:04:56]
10. Drifting White [00:01:47]
11. Life On Bridges [00:08:05]
12. Fourteen Hour Dream [00:06:24]
13. Breathe [00:05:31]
14. Night Sky (Bonus Track) [00:03:19]

ВandСamp

Источник (релизер): verbiya

John Etheridge - Electric & Acoustic Guitar
Theo Travis - Sax, Flute, Fender Rhodes Piano
Roy Babbington - Bass
John Marshall - Drums

Special Quest:

Nick Utteridge - Wind Chimes (13)


foobar2000 1.3.12 / Dynamic Range Meter 1.1.1
log date: 2018-09-12 18:31:36

--------------------------------------------------------------------------------
Analyzed: Soft Machine / Hidden Details (HD)
--------------------------------------------------------------------------------

DR Peak RMS Duration Track
--------------------------------------------------------------------------------
DR9 -0.92 dB -11.07 dB 7:36 01-Hidden Details
DR8 -0.91 dB -11.51 dB 5:00 02-The Man Who Waved At Trains
DR8 -0.89 dB -12.08 dB 5:21 03-Ground Lift
DR8 -2.81 dB -14.05 dB 2:30 04-Heart Off Guard
DR9 -1.09 dB -12.57 dB 3:49 05-Broken Hill
DR10 -1.00 dB -15.07 dB 2:12 06-Flight Of The Jett
DR10 -0.91 dB -11.57 dB 4:30 07-One Glove
DR10 -2.99 dB -17.55 dB 2:41 08-Out Bloody Intro
DR9 -0.98 dB -11.58 dB 4:56 09-Out Bloody Rageous, Part 1
DR11 -4.14 dB -19.80 dB 1:48 10-Drifting White
DR10 -0.96 dB -12.39 dB 8:05 11-Life On Bridges
DR9 -0.91 dB -10.86 dB 6:24 12-Fourteen Hour Dream
DR10 -1.71 dB -15.16 dB 5:31 13-Breathe
DR8 -3.86 dB -15.33 dB 3:19 14-Night Sky (Bonus Track)
--------------------------------------------------------------------------------

Number of tracks: 14
Official DR value: DR9

Samplerate: 44100 Hz
Channels: 2
Bits per sample: 24
Bitrate: 1310 kbps
Codec: FLAC
================================================================================



Комментарии (4)


11 февраля 2019
aleox16   
0 
PR:XCityXXX GBXXX GBПостовХС
В
Л
Х

gracias


11 февраля 2019
meloman50   
0 
PR:XCityXXX GBXXX GBПостовХС
В
Л
Х

Thanks.


10 февраля 2019
bobak14   
0 
PR:XCityXXX GBXXX GBПостовХС
В
Л
Х

Спасибо! Хорошая музыка, но забыли написать, инструментальная.


10 февраля 2019
teutonic   
0 
PR:XCityXXX GBXXX GBПостовХС
В
Л
Х

Nice one - hank you!



 

Please enable Javascript!
Пожалуйста включите Javascript, иначе данный и другие сайты могут работать не корректно! Узнать как включить Javascript можно на Google Support