Категории
Добро пожаловать на музыкальный торрент трекер без регистрации - Sound-Park  ι  Стать пользователем  ι  Войти  ι  Напомнить пароль?

Black Majesty - Children of the Abyss (Lossless, Hi Res 2018)

Power Metal
 
Дата: 9 февраля 2019
Добавил: StasOn11
Просмотров: 1969
  • ИСПОЛНИТЕЛЬ: Black Majesty
  • АЛЬБОМ / НАЗВАНИЕ: Children of the Abyss
  • ГОД / ДАТА ВЫХОДА: 2018
  • СТРАНА: Australia
  • ТОЧНЫЙ ЖАНР(Ы): Power Metal
  • ЛЕЙБЛ: © Pride & Joy Music
  • ПРОДОЛЖИТЕЛЬНОСТЬ: 00:46:58
  • ФОРМАТ: FLAC, (tracks) 24 bits, 44,1 KHz
  • КАЧЕСТВО: Lossless

  • РЕЙТИНГ: 10 / 6    
  • ГОЛОСОВАТЬ:

  • СКАЧАТЬ: ПРЯМАЯ ССЫЛКА НА ТОРРЕНТ

Описание альбома



01. Dragons Unite
02. Something's Going On
03. Children of the Abyss
04. Hideaway
05. Wars Greed
06. Always Running
07. Lonely
08. Sanctified
09. Nothing Forever
10. Reach into Darkness

Qobuz

Источник (релизер): mart0372


foobar2000 1.3.16 / Dynamic Range Meter 1.1.1
log date: 2018-10-11 12:23:20

--------------------------------------------------------------------------------
Analyzed: Black Majesty / Children Of The Abyss
--------------------------------------------------------------------------------

DR Peak RMS Duration Track
--------------------------------------------------------------------------------
DR8 -0.04 dB -8.85 dB 4:25 01-Dragons Unite
DR8 -0.02 dB -8.93 dB 5:26 02-Something’s Goin On
DR8 -0.08 dB -8.71 dB 4:36 03-Children Of The Abyss
DR8 -0.02 dB -9.05 dB 4:34 04-Hideaway
DR8 -0.02 dB -8.65 dB 4:48 05-War's Greed
DR8 -0.04 dB -8.97 dB 4:56 06-Always Running
DR8 -0.04 dB -8.71 dB 4:24 07-Lonely
DR8 -0.06 dB -8.79 dB 4:55 08-Sanctified
DR8 -0.08 dB -8.81 dB 4:28 09-Nothing Forever
DR8 -0.02 dB -8.75 dB 4:26 10-Reach Into The Darkness
--------------------------------------------------------------------------------

Number of tracks: 10
Official DR value: DR8

Samplerate: 44100 Hz
Channels: 2
Bits per sample: 24
Bitrate: 1712 kbps
Codec: FLAC
================================================================================



Комментарии (2)


11 февраля 2019
agustsons   
0 
PR:XCityXXX GBXXX GBПостовХС
В
Л
Х

Ерфтлы!!!


10 февраля 2019
edkarlos   
0 
PR:XCityXXX GBXXX GBПостовХС
В
Л
Х

Very Greatful



 

Похожие альбомы

+ Показать ещё
Please enable Javascript!
Пожалуйста включите Javascript, иначе данный и другие сайты могут работать не корректно! Узнать как включить Javascript можно на Google Support