Категории
Добро пожаловать на музыкальный торрент трекер без регистрации - Sound-Park  ι  Стать пользователем  ι  Войти  ι  Напомнить пароль?

Linda Ronstadt - Live In Hollywood (Remastered) (Lossless, Hi Res 2019)

Pop  Soft rock  Country
 
Дата: 4 февраля 2019
Добавил: StasOn11
Просмотров: 2475
  • ИСПОЛНИТЕЛЬ: Linda Ronstadt
  • АЛЬБОМ / НАЗВАНИЕ: Live In Hollywood (Remastered)
  • ГОД / ДАТА ВЫХОДА: 2019
  • СТРАНА: United States
  • ТОЧНЫЙ ЖАНР(Ы): Pop, Soft Rock, Country
  • ЛЕЙБЛ: Rhino
  • ПРОДОЛЖИТЕЛЬНОСТЬ: 00:48:44
  • ФОРМАТ: FLAC, (tracks) 24 bits, 96 KHz
  • КАЧЕСТВО: Lossless

  • РЕЙТИНГ: 9.86 / 7    
  • ГОЛОСОВАТЬ:

  • СКАЧАТЬ: ПРЯМАЯ ССЫЛКА НА ТОРРЕНТ

Описание альбома



1. I Can't Let Go (03:03)
2. It's so Easy (02:47)
3. Willin' (03:44)
4. Just One Look (03:16)
5. Blue Bayou (04:39)
6. Faithless Love (04:03)
7. Hurt so Bad (03:38)
8. Poor Poor Pitiful Me (04:01)
9. You're No Good (06:23)
10. How Do I Make You (02:59)
11. Back in the U.S.A. (03:32)
12. Desperado (04:21)
13. Band Introductions (02:18)

HighresAudio

Источник (релизер): Stephenten

Этот альбом никогда ранее ни издававшиеся запись живого выступления певицы 24 апреля 1980 года в студии Television Center в Голливуде.

"Live In Hollywood" features amazing performances from a concert that Ronstadt recorded in 1980 for her acclaimed HBO television special. Recorded on April 24, 1980 at Television Center Studios in Hollywood, and produced by John Boylan, the concert captures Ronstadt at the peak of her reign as America’s most popular female rock singer. For "Live In Hollywood", Ronstadt selected 12 of her favorite performances from the original concert.

In concert, she was joined by an outstanding band that included guitarists Kenny Edwards and Danny Kortchmar, drummer Russ Kunkel, bassist Bob Glaub, keyboardist Billy Payne (of Little Feat fame), pedal steel guitarist Dan Dugmore, and backing vocalist Wendy Waldman. Rounding out the band was Peter Asher – Ronstadt’s producer and the concert’s executive producer – who played percussion and sang background.

On stage, Ronstadt held the packed audience spellbound with powerful renditions of her biggest hits – “Blue Bayou,” “Poor Poor Pitiful Me” and “It’s So Easy” – plus an incredible, previously unreleased six-minute jam of her #1 smash, “You’re No Good.” The concert also showcased a trio of Top Ten hits from Ronstadt’s then-current album – Mad Love – with performances of “I Can’t Let Go,” “How Do I Make You” and “Hurt So Bad.” After its release in February 1980, Mad Love would become Ronstadt’s seventh consecutive platinum-selling album.

John Boylan - who produced LIVE IN HOLLYWOOD - says the album almost didn't happen because HBO, Ronstadt, and her record label, Warner Bros., could not initially find the master tapes. It was a rink-side conversation with a Warner Bros. audio engineer at their sons' hockey practice that would finally lead him to the missing tapes. In the album's liner notes, he writes: "I have no way of calculating the odds of finding the lost tapes through a chance encounter at a hockey practice, but they must be astronomical - like winning the lottery. And in this case of remarkable serendipity, every Linda Ronstadt fan is a lottery winner."

Linda Ronstadt, Vocals
Kenny Edwards, Guitar
Danny Kortchmar, Guitar
Russ Kunkel, Drums
Bob Glaub, Bass
Billy Payne, Keyboards
Dan Dugmore, Pedal Steel Guitar
Wendy Waldman, Backing Vocals
Peter Asher, Percussion, Backing Vocals


foobar2000 1.4 / Dynamic Range Meter 1.1.1
log date: 2019-02-01 18:26:45

--------------------------------------------------------------------------------
Analyzed: Linda Ronstadt / Live In Hollywood
--------------------------------------------------------------------------------

DR Peak RMS Duration Track
--------------------------------------------------------------------------------
DR8 -1.00 dB -11.04 dB 3:04 01-I Can't Let Go (Live at Television Center Studios, Hollywood, CA 4,24,1980)
DR9 -1.00 dB -11.71 dB 2:48 02-It's so Easy (Live at Television Center Studios, Hollywood, CA 4,24,1980)
DR12 -1.35 dB -15.90 dB 3:45 03-Willin' (Live at Television Center Studios, Hollywood, CA 4,24,1980)
DR10 -1.00 dB -13.11 dB 3:17 04-Just One Look (Live at Television Center Studios, Hollywood, CA 4,24,1980)
DR11 -2.61 dB -16.93 dB 4:39 05-Blue Bayou (Live at Television Center Studios, Hollywood, CA 4,24,1980)
DR10 -2.56 dB -17.84 dB 4:04 06-Faithless Love (Live at Television Center Studios, Hollywood, CA 4,24,1980)
DR10 -1.00 dB -13.21 dB 3:38 07-Hurt so Bad (Live at Television Center Studios, Hollywood, CA 4,24,1980)
DR10 -1.00 dB -12.68 dB 4:02 08-Poor Poor Pitiful Me (Live at Television Center Studios, Hollywood, CA 4241980)
DR10 -1.00 dB -12.63 dB 6:24 09-You're No Good (Live at Television Center Studios, Hollywood, CA 4,24,1980)
DR10 -1.00 dB -12.18 dB 3:00 10-How Do I Make You (Live at Television Center Studios, Hollywood, CA 4,24,1980)
DR11 -1.00 dB -13.16 dB 3:33 11-Back in the U.S.A. (Live at Television Center Studios, Hollywood, CA 4,24,1980)
DR12 -3.91 dB -22.63 dB 4:22 12-Desperado (Live at Television Center Studios, Hollywood, CA 4,24,1980)
--------------------------------------------------------------------------------

Number of tracks: 12
Official DR value: DR10
Samplerate: 96000 Hz
Channels: 2
Bits per sample: 24
Bitrate: 2607 kbps
Codec: FLAC
================================================================================



Комментарии (8)


6 февраля 2019
petrosa   
0 
PR:XCityXXX GBXXX GBПостовХС
В
Л
Х

thanks


5 февраля 2019
StasOn11   
+2 
PR:XCityXXX GBXXX GBПостовХС
В
Л
Х

Цитата:  yuriy75
слова закончились! спасибо за классный live!!!

Благодарю за "Спасибо"!


4 февраля 2019
yuriy75   
+3 
PR:XCityXXX GBXXX GBПостовХС
В
Л
Х

слова закончились! спасибо за классный live!!!


4 февраля 2019
musikaio   
+2 
PR:XCityXXX GBXXX GBПостовХС
В
Л
Х

Gracias! La gran Linda Ronstadt.


4 февраля 2019
aleox16   
+2 
PR:XCityXXX GBXXX GBПостовХС
В
Л
Х

gracias


4 февраля 2019
lanavarro66   
+2 
PR:XCityXXX GBXXX GBПостовХС
В
Л
Х

GREAT


4 февраля 2019
miok   
+2 
PR:XCityXXX GBXXX GBПостовХС
В
Л
Х

Awesome!


4 февраля 2019
Bagdee   
+2 
PR:XCityXXX GBXXX GBПостовХС
В
Л
Х

Greatest



 
Please enable Javascript!
Пожалуйста включите Javascript, иначе данный и другие сайты могут работать не корректно! Узнать как включить Javascript можно на Google Support